磁力链接吧

 找回密码
 立即注册
搜索

[BD-4K] 噪声终极播放列表 The.Ultimate.Playlist.of.Noise.2021.2160p.HULU.WEBRi...

[复制链接]
百度云资源 发表于 2021-1-17 22:12:58 | 显示全部楼层 |阅读模式
-->
帖子完整标题:噪声终极播放列表 The.Ultimate.Playlist.of.Noise.2021.2160p.HULU.WEBRip.DDP5.1.x265-MZABI 10.55GB




◎译  名 噪声终极播放列表
◎片  名 The Ultimate Playlist of Noise
◎年  代 2021
◎产  地 美国
◎类  别 
◎语  言 英语
◎上映日期 2021-01-15(美国)
◎IMDb评分  6.3/10 from 51 users
◎  
◎豆瓣评分 /10 from 0 users
◎ 
◎主  演 玛德琳·布鲁尔 Madeline Brewer
       基恩·约翰逊 Keean Johnson
       阿里拉·巴勒 Ariela Barer
       奥利弗·库珀 Oliver Cooper
       伊恩·戈麦斯 Ian Gomez
       艾米莉· 斯凯格斯 Emily Skeggs
       卡罗尔·曼塞尔 Carol Mansell
       戈登·威纳里克 Gordon Winarick
       凯莉·汉密尔顿 Carrie Hamilton

◎简  介

  Marcus, an audio obsessed high school senior who learns he must undergo brain surgery that will render him deaf, he decides to seize control of his fate by recording the Ultimate Playlist of Noise .
Video
ID                                       : 1
Format                                   : HEVC
Format/Info                              : High Efficiency Video Coding
Format profile                           : Main @Main
Codec ID                                 : V_MPEGH/ISO/HEVC
Duration                                 : 1 h 39 min
Bit rate                                 : 14.9 Mb/s
Width                                    : 3 840 pixels
Height                                   : 2 160 pixels
Display aspect ratio                     : 16:9
Frame rate mode                          : Constant
Frame rate                               : 24.000 FPS
Color space                              : YUV
Chroma subsampling                       : 4:2:0
Bit depth                                : 10 bits
Bits/(Pixel*Frame)                       : 0.075
Stream size                              : 10.4 GiB (98%)
Default                                  : Yes
Forced                                   : No

Audio
ID                                       : 2
Format                                   : E-AC-3
Format/Info                              : Enhanced AC-3
Commercial name                          : Dolby Digital Plus
Codec ID                                 : A_EAC3
Duration                                 : 1 h 39 min
Bit rate mode                            : Constant
Bit rate                                 : 256 kb/s
Channel(s)                               : 6 channels
Channel layout                           : L R C LFE Ls Rs
Sampling rate                            : 48.0 kHz
Frame rate                               : 31.250 FPS (1536 SPF)
Compression mode                         : Lossy
Stream size                              : 182 MiB (2%)
Title                                    : English
Language                                 : English
Service kind                             : Complete Main
Default                                  : No
Forced                                   : No

Text #1
ID                                       : 3
Format                                   : UTF-8
Codec ID                                 : S_TEXT/UTF8
Codec ID/Info                            : UTF-8 Plain Text
Duration                                 : 1 h 38 min
Bit rate                                 : 56 b/s
Count of elements                        : 1284
Stream size                              : 40.6 KiB (0%)
Title                                    : English
Language                                 : English
Default                                  : No
Forced                                   : No

Text #2
ID                                       : 4
Format                                   : UTF-8
Codec ID                                 : S_TEXT/UTF8
Codec ID/Info                            : UTF-8 Plain Text
Duration                                 : 1 h 37 min
Bit rate                                 : 61 b/s
Count of elements                        : 1356
Stream size                              : 43.7 KiB (0%)
Title                                    : Spanish
Language                                 : Spanish
Default                                  : No
Forced                                   : No




                                                                                                                                                                                                        
                                                                                                                                                                                                                                                                                                                                                                                                                                                                                                                                                                                                                                                                                                                                                                                                                                                        
fdb0d1d2465851d82e89e51c372efede.zip (53.44 KB, 下载次数: 15)

回复

使用道具 举报

小黑屋|磁力链接吧 |网站地图

本网站所有资源来自网络,如无意中侵犯了您的权益,请发邮件至 [email protected],立即清除相关链接

GMT+8, 2021-3-9 02:56 , Processed in 0.093812 second(s), 23 queries .

Powered by Discuz! X3.2

© 2001-2013 Comsenz Inc.

快速回复 返回顶部 返回列表