磁力链接吧

 找回密码
 立即注册
搜索

少年泰坦出击电影版/电影少年悍将GO! Teen.Titans.Go.To.the.Mov...

[复制链接]
百度云资源 发表于 2020-7-8 07:03:42 | 显示全部楼层 |阅读模式
-->



◎译  名 少年泰坦出击电影版 / 电影少年悍将GO!(台)
◎片  名 Teen Titans Go! To the Movies
◎年  代 2018
◎产  地 美国
◎类  别 喜剧 / 动作 / 动画
◎语  言 英语
◎上映日期 2018-07-27(美国)
◎IMDb评分  6.8/10 from 15478 users
◎片  长 84分钟
◎导  演 亚伦·霍瓦斯 Aaron Horvath / 皮得·里达·米切尔 Peter Rida Michail
◎编  剧 亚伦·霍瓦斯 Aaron Horvath / 迈克尔·杰勒尼克 Michael Jelenic
◎主  演 尼古拉斯·凯奇 Nicolas Cage
       克里斯汀·贝尔 Kristen Bell
       威尔·阿奈特 Will Arnett
       塔拉·斯特朗 Tara Strong
       詹姆斯·柯登 James Corden
       卡里·佩顿 Khary Payton
       格雷格·西佩斯 Greg Cipes
       斯坦·李 Stan Lee
       哈尔希 Halsey
       吉米·坎摩尔 Jimmy Kimmel
       斯科特·门维尔 Scott Menville
       海登·瓦尔希 Hynden Walch
       Dana Snyder
       Lil Yachty


◎标  签 DC | 动画 | 超级英雄 | 美国 | 喜剧 | 2018 | 漫画改编 | 美漫

◎简  介  

  威尔·阿奈特、克里斯汀·贝尔献声[少年泰坦出击电影版](Teen Titans Go! to the Movies,暂译)。该动画片将由亚伦·霍瓦特、彼得·里达·米卡尔执导。剧版《少年泰坦出击》原版配音人马格雷格·西佩斯、斯科特·门维尔等悉数回归。而威尔·阿奈特、克里斯汀·贝尔两人在片中的角色暂不可知。

◎获奖情况  

  第46届动画安妮奖(2019)
  最佳编剧(提名) 亚伦·霍瓦斯 / 迈克尔·杰勒尼克
Video
ID                                       : 1
Format                                   : AVC
Format/Info                              : Advanced Video Codec
Format settings                          : CABAC / 4 Ref Frames
Format settings, CABAC                   : Yes
Format settings, ReFrames                : 4 frames
Codec ID                                 : V_MPEG4/ISO/AVC
Duration                                 : 1 h 24 min
Bit rate                                 : 11.7 Mb/s
Width                                    : 1 920 pixels
Height                                   : 1 080 pixels
Display aspect ratio                     : 16:9
Frame rate mode                          : Constant
Frame rate                               : 23.976 (24000/1001/189150) FPS
Color space                              : YUV
Chroma subsampling                       : 4:2:0
Bit depth                                : 8 bits
Scan type                                : Progressive
Bits/(Pixel*Frame)                       : 0.236
Stream size                              : 6.90 GiB (89%)
Title                                    : Teen.Titans.Go.To.the.Movies.2018.1080p.BluRay.x264.DTS-FGT
Writing library                          : x264 core 148 r2795M aaa9aa8
Encoding settings                        : cabac=1 / ref=4 / deblock=1:1:1 / analyse=0x3:0x113 / me=umh / subme=8 / psy=1 / psy_rd=0.50:0.00 / mixed_ref=1 / me_range=32 / chroma_me=1 / trellis=2 / 8x8dct=1 / cqm=0 / deadzone=21,11 / fast_pskip=1 / chroma_qp_offset=-2 / threads=34 / lookahead_threads=3 / sliced_threads=0 / nr=0 / decimate=1 / interlaced=0 / bluray_compat=0 / constrained_intra=0 / bframes=3 / b_pyramid=2 / b_adapt=2 / b_bias=0 / direct=3 / weightb=1 / open_gop=0 / weightp=2 / keyint=240 / keyint_min=24 / scenecut=40 / intra_refresh=0 / rc_lookahead=50 / rc=crf / mbtree=1 / crf=16.0 / qcomp=0.60 / qpmin=0 / qpmax=69 / qpstep=4 / ip_ratio=1.40 / aq=3:0.60
Language                                 : English
Default                                  : Yes
Forced                                   : No

Audio
ID                                       : 2
Format                                   : DTS
Format/Info                              : Digital Theater Systems
Codec ID                                 : A_DTS
Duration                                 : 1 h 24 min
Bit rate mode                            : Constant
Bit rate                                 : 1 509 kb/s
Channel(s)                               : 6 channels
Channel layout                           : C L R Ls Rs LFE
Sampling rate                            : 48.0 kHz
Frame rate                               : 93.750 FPS (512 SPF)
Bit depth                                : 24 bits
Compression mode                         : Lossy
Stream size                              : 907 MiB (11%)
Title                                    : Teen.Titans.Go.To.the.Movies.2018.1080p.BluRay.x264.DTS-FGT
Language                                 : English
Default                                  : No
Forced                                   : No

Text
ID                                       : 3
Format                                   : UTF-8
Codec ID                                 : S_TEXT/UTF8
Codec ID/Info                            : UTF-8 Plain Text
Duration                                 : 1 h 22 min
Bit rate                                 : 66 b/s
Count of elements                        : 1243
Stream size                              : 40.4 KiB (0%)
Language                                 : English
Default                                  : Yes
Forced                                   : No

Menu
00:00:00.000                             : en:Chapter 01
00:10:26.125                             : en:Chapter 02
00:20:20.594                             : en:Chapter 03
00:32:50.093                             : en:Chapter 04
00:42:39.473                             : en:Chapter 05
00:51:32.339                             : en:Chapter 06
01:02:41.841                             : en:Chapter 07
01:08:43.994                             : en:Chapter 08
01:17:25.474                             : en:Chapter 09




                                                                                                                                                                                                        
                                                                                                                                                                                                                                                                                                                                                                                                                                                                                                                                                                                                                                                                                                                                                                                                                                                       681ed730464f8657b517bcf98edb0eaf.torrent (78.41 KB, 下载次数: 10)

回复

使用道具 举报

小黑屋|磁力链接吧 |网站地图

本网站所有资源来自网络,如无意中侵犯了您的权益,请发邮件至 [email protected],立即清除相关链接

GMT+8, 2020-9-28 12:44 , Processed in 0.118659 second(s), 23 queries .

Powered by Discuz! X3.2

© 2001-2013 Comsenz Inc.

快速回复 返回顶部 返回列表