磁力链接吧

 找回密码
 立即注册
搜索

失心病狂/疯·魔 Unsane.2018.1080p.BluRay.x264.DTS-HD.MA.5.1-FGT 8.77GB

[复制链接]
百度云资源 发表于 2020-7-8 07:03:42 | 显示全部楼层 |阅读模式
-->



◎译  名 失心病狂 / 疯·魔(港) / 疯人院(台) / 荒诞 / 表演者
◎片  名 Unsane
◎年  代 2018
◎产  地 美国
◎类  别 剧情 / 惊悚 / 恐怖
◎语  言 英语
◎上映日期 2018-02-21(柏林电影节) / 2018-03-23(美国)
◎IMDb评分  6.4/10 from 38019 users
◎片  长 98分钟
◎导  演 史蒂文·索德伯格 Steven Soderbergh
◎编  剧 乔纳森·伯恩斯坦 Jonathan Bernstein / 詹姆斯·格里尔 James Greer
◎主  演 乔舒华·莱纳德 Joshua Leonard
       克莱尔·芙伊 Claire Foy
       莎拉·斯蒂尔斯 Sarah Stiles
       马克·库迪奇 Marc Kudisch
       艾米·欧文 Amy Irving
       科林·伍德尔 Colin Woodell
       迈拉·卢克利希亚·泰勒 Myra Lucretia Taylor
       琳达·茂泽 Lynda Mauze
       扎克·切利 Zach Cherry
       波莉·麦基 Polly McKie
       杰·费罗尔 Jay Pharoah
       劳尔·卡斯提洛 Raúl Castillo
       朱诺·坦普尔 Juno Temple
       迈克尔·米姆 Michael Mihm
       罗伯特·凯利 Robert Kelly
       吉普森·弗雷泽 Gibson Frazier
       埃林·维赫米 Erin Wilhelmi
       艾米·穆林斯 Aimee Mullins
       约瑟夫·莱迪 Joseph P. Reidy


◎标  签 惊悚 | 美国 | 悬疑 | 2018 | 恐怖 | 剧情 | 手机拍摄 | 史蒂文·索德伯格

◎简  介  

  《失心病狂》讲述了一个年轻女孩,一个年轻女人为了摆脱混乱的过去离开了家乡,无意中被送进了精神病院。在面对如何“逃出去”的自我命题之下,对她而言,似乎还潜藏着更大的恐惧 — 她似乎正在失去判断这一切到底是真实的存在还是自己的臆想的能力……影片以一种扭曲的视角和惊人的故事向我们问出了关于我们对于现实的认知,我们的生存本能以及本该保护我们的系统的问题。

◎获奖情况  

  第39届伦敦影评人协会奖(2019)
  年度英国/爱尔兰女演员(提名) 克莱尔·芙伊
Video
ID                                       : 1
Format                                   : AVC
Format/Info                              : Advanced Video Codec
Format settings                          : CABAC / 4 Ref Frames
Format settings, CABAC                   : Yes
Format settings, ReFrames                : 4 frames
Codec ID                                 : V_MPEG4/ISO/AVC
Duration                                 : 1 h 38 min
Bit rate                                 : 9 646 kb/s
Width                                    : 1 696 pixels
Height                                   : 1 080 pixels
Display aspect ratio                     : 16:10
Frame rate mode                          : Constant
Frame rate                               : 23.976 FPS
Color space                              : YUV
Chroma subsampling                       : 4:2:0
Bit depth                                : 8 bits
Scan type                                : Progressive
Bits/(Pixel*Frame)                       : 0.220
Stream size                              : 6.62 GiB (75%)
Title                                    : Unsane.2018.1080p.BluRay.x264.DTS-HD.MA.5.1-FGT
Writing library                          : x264 core 155 r2901 7d0ff22
Encoding settings                        : cabac=1 / ref=4 / deblock=1:0:0 / analyse=0x3:0x133 / me=umh / subme=7 / psy=1 / psy_rd=1.00:0.00 / mixed_ref=1 / me_range=16 / chroma_me=1 / trellis=1 / 8x8dct=1 / cqm=0 / deadzone=21,11 / fast_pskip=0 / chroma_qp_offset=-2 / threads=30 / lookahead_threads=5 / sliced_threads=0 / nr=0 / decimate=1 / interlaced=0 / bluray_compat=0 / constrained_intra=0 / bframes=3 / b_pyramid=2 / b_adapt=1 / b_bias=0 / direct=1 / weightb=1 / open_gop=0 / weightp=2 / keyint=250 / keyint_min=23 / scenecut=40 / intra_refresh=0 / rc_lookahead=40 / rc=2pass / mbtree=1 / bitrate=9646 / ratetol=1.0 / qcomp=0.60 / qpmin=0 / qpmax=69 / qpstep=4 / cplxblur=20.0 / qblur=0.5 / ip_ratio=1.40 / aq=1:1.00
Language                                 : English
Default                                  : Yes
Forced                                   : No

Audio
ID                                       : 2
Format                                   : DTS
Format/Info                              : Digital Theater Systems
Format profile                           : MA / Core
Codec ID                                 : A_DTS
Duration                                 : 1 h 38 min
Bit rate mode                            : Variable / Constant
Bit rate                                 : 3 072 kb/s / 1 509 kb/s
Channel(s)                               : 6 channels
Channel positions                        : Front: L C R, Side: L R, LFE
Sampling rate                            : 48.0 kHz
Frame rate                               : 93.750 FPS (512 SPF)
Bit depth                                : 24 bits
Compression mode                         : Lossless / Lossy
Stream size                              : 2.14 GiB (24%)
Title                                    : Unsane.2018.1080p.BluRay.x264.DTS-HD.MA.5.1-FGT
Language                                 : English
Default                                  : Yes
Forced                                   : No

Text #1
ID                                       : 3
Format                                   : UTF-8
Codec ID                                 : S_TEXT/UTF8
Codec ID/Info                            : UTF-8 Plain Text
Duration                                 : 1 h 35 min
Bit rate                                 : 62 b/s
Count of elements                        : 1291
Stream size                              : 43.8 KiB (0%)
Title                                    : English-SRT
Language                                 : English
Default                                  : Yes
Forced                                   : No

Text #2
ID                                       : 4
Format                                   : PGS
Muxing mode                              : zlib
Codec ID                                 : S_HDMV/PGS
Codec ID/Info                            : Picture based subtitle format used on BDs/HD-DVDs
Duration                                 : 1 h 35 min
Bit rate                                 : 44.5 kb/s
Count of elements                        : 2854
Stream size                              : 30.4 MiB (0%)
Title                                    : English-PGS
Language                                 : English
Default                                  : No
Forced                                   : No

Menu
00:00:00.000                             : en:00:00:00.000
00:05:40.257                             : en:00:05:40.257
00:10:21.913                             : en:00:10:21.913
00:14:24.697                             : en:00:14:24.697
00:19:26.332                             : en:00:19:26.332
00:24:46.235                             : en:00:24:46.235
00:29:10.165                             : en:00:29:10.165
00:36:35.402                             : en:00:36:35.402
00:40:25.089                             : en:00:40:25.089
00:45:23.596                             : en:00:45:23.596
00:50:14.803                             : en:00:50:14.803
00:56:12.286                             : en:00:56:12.286
00:59:06.835                             : en:00:59:06.835
01:04:44.464                             : en:01:04:44.464
01:07:30.046                             : en:01:07:30.046
01:15:37.450                             : en:01:15:37.450
01:23:25.334                             : en:01:23:25.334
01:26:39.653                             : en:01:26:39.653
01:30:23.168                             : en:01:30:23.168
01:35:08.411                             : en:01:35:08.411




                                                                                                                                                                                                        
                                                                                                                                                                                                                                                                                                                                                                                                                                                                                                                                                                                                                                                                                                                                                                                                                                                      
787adf4635743da3c58608f61937b5f0.torrent (88.21 KB, 下载次数: 4)

回复

使用道具 举报

小黑屋|磁力链接吧 |网站地图

本网站所有资源来自网络,如无意中侵犯了您的权益,请发邮件至 [email protected],立即清除相关链接

GMT+8, 2020-10-30 12:48 , Processed in 0.127025 second(s), 23 queries .

Powered by Discuz! X3.2

© 2001-2013 Comsenz Inc.

快速回复 返回顶部 返回列表