磁力链接吧

 找回密码
 立即注册
搜索

永远是我的女孩/我永远的女孩 Forever.My.Girl.2018.1080p.BluRay.x2...

[复制链接]
百度云资源 发表于 2020-7-8 07:03:42 | 显示全部楼层 |阅读模式


◎译  名 永远是我的女孩 / 我永远的女孩(台)
◎片  名 Forever My Girl
◎年  代 2018
◎产  地 美国
◎类  别 剧情 / 爱情 / 音乐
◎语  言 英语
◎上映日期 2018-01-19(美国)
◎IMDb评分  6.7/10 from 13514 users
◎片  长 108分钟
◎导  演 贝萨妮·阿什顿·沃尔夫 Bethany Ashton Wolf
◎编  剧 贝萨妮·阿什顿·沃尔夫 Bethany Ashton Wolf / 海蒂·麦克劳克林 Heidi McLaughlin
◎主  演 亚历克斯·罗伊 Alex Roe
       杰西卡·罗德 Jessica Rothe
       约翰·本杰明·西基 John Benjamin Hickey
       艾比·莱德·弗特森 Abby Ryder Fortson
       泰勒·里格斯 Tyler Riggs
       皮特·坎姆博尔 Peter Cambor
       吉莲·韦格曼 Gillian Vigman
       摩根·亚历山德里亚 Morgan Alexandria
       劳伦·格罗斯 Lauren Gros
       詹姆斯·拉克利 James Rackley
       杰森·戴维斯 Jason Davis
       贝拉·洛茨 Bella Lotz
       崔维斯·崔特 Travis Tritt
       凯特林·哈里斯 Caitlin Harris


◎标  签 爱情 | 美国 | 音乐 | 家庭 | 温情 | 美国电影 | 剧情 | 2018

◎简  介  

  乡村音乐巨星Liam Page在婚礼上丢下新娘走了,选择追逐功名利禄,但他一直都没忘记Josie。多年后Liam回到家乡参加一场葬礼,意外和Josie重逢,发现自己居然有个女儿,三人开始重新组建家庭。
Video
ID                                       : 1
Format                                   : AVC
Format/Info                              : Advanced Video Codec
Format settings                          : CABAC / 5 Ref Frames
Format settings, CABAC                   : Yes
Format settings, ReFrames                : 5 frames
Codec ID                                 : V_MPEG4/ISO/AVC
Duration                                 : 1 h 47 min
Bit rate                                 : 8 646 kb/s
Width                                    : 1 920 pixels
Height                                   : 800 pixels
Display aspect ratio                     : 2.40:1
Frame rate mode                          : Constant
Frame rate                               : 23.976 (24000/1001/189150) FPS
Color space                              : YUV
Chroma subsampling                       : 4:2:0
Bit depth                                : 8 bits
Scan type                                : Progressive
Bits/(Pixel*Frame)                       : 0.235
Stream size                              : 6.51 GiB (72%)
Title                                    : Forever.My.Girl.2018.1080p.BluRay.x264.DTS-HD.MA.5.1-FGT
Writing library                          : x264 core 155 r2901 7d0ff22
Encoding settings                        : cabac=1 / ref=5 / deblock=1:-3:-3 / analyse=0x3:0x133 / me=umh / subme=8 / psy=1 / psy_rd=1.00:0.00 / mixed_ref=1 / me_range=16 / chroma_me=1 / trellis=1 / 8x8dct=1 / cqm=0 / deadzone=21,11 / fast_pskip=0 / chroma_qp_offset=-2 / threads=25 / lookahead_threads=4 / sliced_threads=0 / nr=0 / decimate=1 / interlaced=0 / bluray_compat=0 / constrained_intra=0 / bframes=3 / b_pyramid=2 / b_adapt=1 / b_bias=0 / direct=3 / weightb=1 / open_gop=0 / weightp=2 / keyint=250 / keyint_min=23 / scenecut=40 / intra_refresh=0 / rc_lookahead=50 / rc=2pass / mbtree=1 / bitrate=8646 / ratetol=1.0 / qcomp=0.60 / qpmin=0 / qpmax=69 / qpstep=4 / cplxblur=20.0 / qblur=0.5 / vbv_maxrate=62500 / vbv_bufsize=78125 / nal_hrd=none / filler=0 / ip_ratio=1.40 / aq=1:1.00
Default                                  : Yes
Forced                                   : No

Audio
ID                                       : 2
Format                                   : DTS
Format/Info                              : Digital Theater Systems
Format profile                           : MA / Core
Codec ID                                 : A_DTS
Duration                                 : 1 h 47 min
Bit rate mode                            : Variable / Constant
Bit rate                                 : 3 409 kb/s / 1 509 kb/s
Channel(s)                               : 6 channels
Channel positions                        : Front: L C R, Side: L R, LFE
Sampling rate                            : 48.0 kHz
Frame rate                               : 93.750 FPS (512 SPF)
Bit depth                                : 24 bits
Compression mode                         : Lossless / Lossy
Stream size                              : 2.57 GiB (28%)
Title                                    : Forever.My.Girl.2018.1080p.BluRay.x264.DTS-HD.MA.5.1-FGT
Language                                 : English
Default                                  : Yes
Forced                                   : No

Text
ID                                       : 3
Format                                   : UTF-8
Codec ID                                 : S_TEXT/UTF8
Codec ID/Info                            : UTF-8 Plain Text
Duration                                 : 1 h 38 min
Bit rate                                 : 59 b/s
Count of elements                        : 1479
Stream size                              : 43.2 KiB (0%)
Title                                    : English-SRT
Language                                 : English
Default                                  : Yes
Forced                                   : No

Menu
00:00:00.000                             : en:00:00:00.000
00:07:59.479                             : en:00:07:59.479
00:14:17.857                             : en:00:14:17.857
00:22:32.351                             : en:00:22:32.351
00:31:03.528                             : en:00:31:03.528
00:39:27.031                             : en:00:39:27.031
00:50:37.034                             : en:00:50:37.034
00:57:34.117                             : en:00:57:34.117
01:05:10.907                             : en:01:05:10.907
01:10:15.211                             : en:01:10:15.211
01:16:21.911                             : en:01:16:21.911
01:22:35.242                             : en:01:22:35.242
01:25:33.128                             : en:01:25:33.128
01:29:22.357                             : en:01:29:22.357
01:35:16.711                             : en:01:35:16.711
01:40:53.714                             : en:01:40:53.714




                                                                                                                                                                                                        
                                                                                                                                                                                                                                                                                                                                                                                                                                                                                                                                                                                                                                                                                                                                                                                                                                                      
d09f958facf9ec014f04f3ad5695bfcb.torrent (91.35 KB, 下载次数: 4)

回复

使用道具 举报

小黑屋|磁力链接吧 |网站地图

本网站所有资源来自网络,如无意中侵犯了您的权益,请发邮件至 [email protected],立即清除相关链接

GMT+8, 2020-9-18 18:42 , Processed in 0.113036 second(s), 23 queries .

Powered by Discuz! X3.2

© 2001-2013 Comsenz Inc.

快速回复 返回顶部 返回列表