磁力链接吧

 找回密码
 立即注册
搜索

大轰炸 Air.Strike.2018.1080p.BluRay.x264.DTS-FGT 6.92GB

[复制链接]
百度云资源 发表于 2020-7-8 07:03:42 | 显示全部楼层 |阅读模式


◎译  名 Air Strike / The Bombing / Unbreakable Spirit
◎片  名 大轰炸
◎年  代 2018
◎产  地 中国大陆
◎类  别 动作 / 战争
◎语  言 汉语普通话 / 英语
◎上映日期 2018-10-26(美国)
◎IMDb评分  3.2/10 from 3340 users
◎片  长 132分钟
◎导  演 萧锋 Feng Xiao
◎编  剧 陈枰 Ping Chen / 杨心愉 Xinyu Yang / 张弘毅 Hongyi Zhang / 吴雨时 Yushi Wu / 李晓奇 Xiaoqi Li / 乔洼 Wa Qiao
◎主  演 刘烨 Ye Liu
       布鲁斯·威利斯 Bruce Willis
       宋承宪 Seung-heon Song
       陈伟霆 William Chan
       范伟 Wei Fan
       马苏 Su Ma
       车永莉 Yongli Che
       吴刚 Gang Wu
       冯远征 Yuanzheng Feng
       张钧甯 Chun-Ning Chang
       耿乐 Le Geng
       谢霆锋 Nicholas Tse
       范冰冰 Bingbing Fan
       陈道明 Daoming Chen
       艾德里安·布洛迪 Adrien Brody
       雷佳 Jia Lei
       涩谷天马 Tenma Shibuya
       张帆 Fan Zhang
       任达华 Simon Yam
       吕良伟 Ray Lui
       胡兵 Hu Bing
       黄海冰 Haibing Huang
       拉莫·威利斯 Rumer Willis
       刘晓庆 Xiaoqing Liu
       曹可凡 Kefan Cao
       黄圣依 Eva Huang
       钟镇涛 Kenny Bee
       爱新觉罗·启星 Qixing Aisin-Gioro
       汪东城  Jiro Wang


◎标  签 战争 | 抗日 | 中国 | 历史 | 二战 | 中国大陆 | 空战 | 2018

◎简  介  

  1937年抗日战争爆发,继淞沪战争失利,南京吃紧。中华民族危急存亡之际,国民政府宣布迁都重庆,日军从1938年2月18日至1944年12月19日,对重庆及周边地区实施无差别轰炸,长达六年零十个月。 重庆市民面对日军残酷的狂轰滥炸,依然向死而生、乐观坚强,展现了重庆不死中国不亡的民族气节。为了保卫家园,年轻的中国飞行员在美国飞行教官的帮助下与日本空军展开了一系列惨烈悲壮的空战。虽然飞行装备远远落后于日军,但他们宁愿战死在天上,也不在地上苟活,与敌人在长空进行殊死搏斗......
Video
ID                                       : 1
Format                                   : AVC
Format/Info                              : Advanced Video Codec
Format settings                          : CABAC / 5 Ref Frames
Format settings, CABAC                   : Yes
Format settings, ReFrames                : 5 frames
Codec ID                                 : V_MPEG4/ISO/AVC
Duration                                 : 1 h 37 min
Bit rate                                 : 8 700 kb/s
Width                                    : 1 920 pixels
Height                                   : 808 pixels
Display aspect ratio                     : 2.40:1
Frame rate mode                          : Constant
Frame rate                               : 23.976 (24000/1001/189150) FPS
Color space                              : YUV
Chroma subsampling                       : 4:2:0
Bit depth                                : 8 bits
Scan type                                : Progressive
Bits/(Pixel*Frame)                       : 0.234
Stream size                              : 5.90 GiB (85%)
Title                                    : Air.Strike.2018.1080p.BluRay.x264.DTS-FGT
Writing library                          : x264 core 157 r2935 545de2f
Encoding settings                        : cabac=1 / ref=5 / deblock=1:0:0 / analyse=0x3:0x113 / me=umh / subme=8 / psy=1 / psy_rd=1.00:0.00 / mixed_ref=1 / me_range=16 / chroma_me=1 / trellis=1 / 8x8dct=1 / cqm=0 / deadzone=21,11 / fast_pskip=1 / chroma_qp_offset=-2 / threads=18 / lookahead_threads=3 / sliced_threads=0 / nr=0 / decimate=1 / interlaced=0 / bluray_compat=0 / constrained_intra=0 / bframes=3 / b_pyramid=2 / b_adapt=2 / b_bias=0 / direct=3 / weightb=1 / open_gop=0 / weightp=2 / keyint=240 / keyint_min=24 / scenecut=40 / intra_refresh=0 / rc_lookahead=50 / rc=2pass / mbtree=1 / bitrate=8700 / ratetol=1.0 / qcomp=0.60 / qpmin=0 / qpmax=69 / qpstep=4 / cplxblur=20.0 / qblur=0.5 / ip_ratio=1.40 / aq=1:1.00
Language                                 : English
Default                                  : Yes
Forced                                   : No

Audio
ID                                       : 2
Format                                   : DTS
Format/Info                              : Digital Theater Systems
Codec ID                                 : A_DTS
Duration                                 : 1 h 37 min
Bit rate mode                            : Constant
Bit rate                                 : 1 509 kb/s
Channel(s)                               : 6 channels
Channel layout                           : C L R Ls Rs LFE
Sampling rate                            : 48.0 kHz
Frame rate                               : 93.750 FPS (512 SPF)
Bit depth                                : 24 bits
Compression mode                         : Lossy
Stream size                              : 1.02 GiB (15%)
Title                                    : Air.Strike.2018.1080p.BluRay.x264.DTS-FGT
Language                                 : English
Default                                  : No
Forced                                   : No

Text
ID                                       : 3
Format                                   : UTF-8
Codec ID                                 : S_TEXT/UTF8
Codec ID/Info                            : UTF-8 Plain Text
Duration                                 : 1 h 26 min
Bit rate                                 : 43 b/s
Count of elements                        : 1026
Stream size                              : 27.3 KiB (0%)
Language                                 : English
Default                                  : Yes
Forced                                   : No

Menu
00:00:00.000                             : en:00:00:00.000
00:06:14.541                             : en:00:06:14.541
00:15:26.259                             : en:00:15:26.259
00:23:19.064                             : en:00:23:19.064
00:30:58.690                             : en:00:30:58.690
00:39:48.595                             : en:00:39:48.595
00:47:51.368                             : en:00:47:51.368
00:58:01.728                             : en:00:58:01.728
01:05:52.615                             : en:01:05:52.615
01:13:33.826                             : en:01:13:33.826
01:23:18.660                             : en:01:23:18.660
01:28:46.905                             : en:01:28:46.905




                                                                                                                                                                                                        
                                                                                                                                                                                                                                                                                                                                                                                                                                                                                                                                                                                                                                                                                                                                                                                                                                                      
dae90f9ca5c042dd39876b9ddee76080.torrent (69.8 KB, 下载次数: 16)

回复

使用道具 举报

小黑屋|磁力链接吧 |网站地图

本网站所有资源来自网络,如无意中侵犯了您的权益,请发邮件至 [email protected],立即清除相关链接

GMT+8, 2020-9-27 20:35 , Processed in 0.113939 second(s), 23 queries .

Powered by Discuz! X3.2

© 2001-2013 Comsenz Inc.

快速回复 返回顶部 返回列表