磁力链接吧

 找回密码
 立即注册
搜索

比得兔/彼得兔 Peter.Rabbit.2018.1080p.BluRay.x264.DTS-HD.MA.5.1-FGT 8.14GB

[复制链接]
百度云资源 发表于 2020-7-8 07:03:42 | 显示全部楼层 |阅读模式


◎译  名 比得兔 / 彼得兔
◎片  名 Peter Rabbit
◎年  代 2018
◎产  地 美国 / 英国 / 澳大利亚
◎类  别 喜剧 / 动画 / 冒险
◎语  言 英语
◎上映日期 2018-02-09(美国) / 2018-03-02(中国大陆)
◎IMDb评分  6.6/10 from 33354 users
◎片  长 95分钟
◎导  演 威尔·古勒 Will Gluck
◎编  剧 威尔·古勒 Will Gluck / 罗伯·列博 Rob Lieber / 碧翠丝·波特 Beatrix Potter
◎主  演 詹姆斯·柯登 James Corden
       多姆纳尔·格里森 Domhnall Gleeson
       萝丝·拜恩 Rose Byrne
       伊丽莎白·德比茨基 Elizabeth Debicki
       玛格特·罗比 Margot Robbie
       黛西·雷德利 Daisy Ridley
       科林·穆迪 Colin Moody
       山姆·尼尔 Sam Neill
       希雅 Sia
       伊文·莱斯利 Ewen Leslie
       费萨尔·巴齐 Fayssal Bazzi
       克里斯蒂安·加扎尔 Christian Gazal
       玛丽安娜·琼-巴普蒂斯特 Marianne Jean-Baptiste
       加雷斯·戴维斯 Gareth Davies
       山姆·哈夫特 Sam Haft
       萨莎·霍勒 Sacha Horler
       娜塔丽·朱 Natalie Dew
       特伦尼娅·爱德华兹 Terenia Edwards
       费利克斯·威廉森 Felix Williamson
       许明珠 Ming-Zhu Hii
       布莱恩·布朗 Bryan Brown
       雷切尔·沃德 Rachel Ward
       大卫·文翰 David Wenham
       威尔·赖歇尔特 Will Reichelt


◎标  签 动画 | 喜剧 | 温情 | 英国 | 动物 | 2018 | 漫画改编 | 美国

◎简  介  

  远离伦敦的英国乡村,比得兔(詹姆斯·柯登 James Corden 配音)和家人以及朋友们过着快乐的生活,当然除了那个侵占了他自由土地并杀害他父亲的邻居麦格雷戈先生。每天,比得兔都要闯入麦格雷戈的院子偷吃水果蔬菜,顺带和这个顽固凶残的老家伙对决一番。可就在某天,麦格雷戈意外身亡。快乐的兔子们带着郊外的野生动物闯入没有住人的房子大吃八喝,好不自在。然而好景不长,麦格雷戈的侄子托马斯(多姆纳尔·格里森 Domhnall Gleeson 饰)——一个在伦敦闯荡的精英——刚刚丢了工作,偏巧继承了这幢位于乡下的房子。
  托马斯来到乡下,毫不留情将野生动物们赶了出去,而比得兔他们一刻也不忘要夺回属于自己的土地……

◎获奖情况  

  第66届美国音效剪辑协会奖(2019)
  金卷轴奖 最佳动画片音效剪辑(提名)

  第5届豆瓣电影年度榜单(2018)
  评分最高的动画片(提名)
Video
ID                                       : 1
Format                                   : AVC
Format/Info                              : Advanced Video Codec
Format settings                          : CABAC / 5 Ref Frames
Format settings, CABAC                   : Yes
Format settings, ReFrames                : 5 frames
Codec ID                                 : V_MPEG4/ISO/AVC
Duration                                 : 1 h 34 min
Bit rate                                 : 10.1 Mb/s
Width                                    : 1 920 pixels
Height                                   : 800 pixels
Display aspect ratio                     : 2.40:1
Frame rate mode                          : Constant
Frame rate                               : 23.976 (24000/1001/189150) FPS
Color space                              : YUV
Chroma subsampling                       : 4:2:0
Bit depth                                : 8 bits
Scan type                                : Progressive
Bits/(Pixel*Frame)                       : 0.273
Stream size                              : 6.65 GiB (82%)
Title                                    : Peter.Rabbit.2018.1080p.BluRay.x264.DTS-HD.MA.5.1-FGT
Writing library                          : x264 core 155 r2901 7d0ff22
Encoding settings                        : cabac=1 / ref=5 / deblock=1:-3:-3 / analyse=0x3:0x133 / me=umh / subme=8 / psy=1 / psy_rd=1.00:0.00 / mixed_ref=1 / me_range=16 / chroma_me=1 / trellis=1 / 8x8dct=1 / cqm=0 / deadzone=21,11 / fast_pskip=0 / chroma_qp_offset=-2 / threads=25 / lookahead_threads=4 / sliced_threads=0 / nr=0 / decimate=1 / interlaced=0 / bluray_compat=0 / constrained_intra=0 / bframes=3 / b_pyramid=2 / b_adapt=1 / b_bias=0 / direct=3 / weightb=1 / open_gop=0 / weightp=2 / keyint=250 / keyint_min=23 / scenecut=40 / intra_refresh=0 / rc_lookahead=50 / rc=2pass / mbtree=1 / bitrate=10056 / ratetol=1.0 / qcomp=0.60 / qpmin=0 / qpmax=69 / qpstep=4 / cplxblur=20.0 / qblur=0.5 / vbv_maxrate=62500 / vbv_bufsize=78125 / nal_hrd=none / filler=0 / ip_ratio=1.40 / aq=1:1.00
Default                                  : Yes
Forced                                   : No

Audio
ID                                       : 2
Format                                   : DTS
Format/Info                              : Digital Theater Systems
Format profile                           : MA / Core
Codec ID                                 : A_DTS
Duration                                 : 1 h 34 min
Bit rate mode                            : Variable / Constant
Bit rate                                 : 2 222 kb/s / 1 509 kb/s
Channel(s)                               : 6 channels
Channel positions                        : Front: L C R, Side: L R, LFE
Sampling rate                            : 48.0 kHz
Frame rate                               : 93.750 FPS (512 SPF)
Bit depth                                : 16 bits
Compression mode                         : Lossless / Lossy
Stream size                              : 1.47 GiB (18%)
Title                                    : Peter.Rabbit.2018.1080p.BluRay.x264.DTS-HD.MA.5.1-FGT
Language                                 : English
Default                                  : Yes
Forced                                   : No

Text #1
ID                                       : 3
Format                                   : UTF-8
Codec ID                                 : S_TEXT/UTF8
Codec ID/Info                            : UTF-8 Plain Text
Duration                                 : 1 h 26 min
Bit rate                                 : 77 b/s
Count of elements                        : 1648
Stream size                              : 49.0 KiB (0%)
Title                                    : English-SRT
Language                                 : English
Default                                  : Yes
Forced                                   : No

Text #2
ID                                       : 4
Format                                   : PGS
Muxing mode                              : zlib
Codec ID                                 : S_HDMV/PGS
Codec ID/Info                            : Picture based subtitle format used on BDs/HD-DVDs
Duration                                 : 1 h 33 min
Bit rate                                 : 62.7 kb/s
Count of elements                        : 3901
Stream size                              : 42.1 MiB (1%)
Title                                    : English-PGS
Language                                 : English
Default                                  : No
Forced                                   : No

Menu
00:00:00.000                             : en:00:00:00.000
00:04:04.786                             : en:00:04:04.786
00:08:26.297                             : en:00:08:26.297
00:15:11.702                             : en:00:15:11.702
00:21:00.634                             : en:00:21:00.634
00:25:43.584                             : en:00:25:43.584
00:30:50.265                             : en:00:30:50.265
00:38:00.862                             : en:00:38:00.862
00:44:37.341                             : en:00:44:37.341
00:50:07.671                             : en:00:50:07.671
00:56:21.295                             : en:00:56:21.295
01:01:07.581                             : en:01:01:07.581
01:07:02.560                             : en:01:07:02.560
01:10:30.810                             : en:01:10:30.810
01:14:35.137                             : en:01:14:35.137
01:21:51.990                             : en:01:21:51.990




                                                                                                                                                                                                        
                                                                                                                                                                                                                                                                                                                                                                                                                                                                                                                                                                                                                                                                                                                                                                                                                                                       a1d50520f1161cae20e5c17806267299.torrent (81.99 KB, 下载次数: 13)

回复

使用道具 举报

小黑屋|磁力链接吧 |网站地图

本网站所有资源来自网络,如无意中侵犯了您的权益,请发邮件至 [email protected],立即清除相关链接

GMT+8, 2020-9-18 17:52 , Processed in 0.113672 second(s), 23 queries .

Powered by Discuz! X3.2

© 2001-2013 Comsenz Inc.

快速回复 返回顶部 返回列表