磁力链接吧

 找回密码
 立即注册
搜索

通勤营救/疾速救援 The.Commuter.2018.1080p.BluRay.x264.TrueHD.7.1.Atmo...

[复制链接]
百度云资源 发表于 2020-7-8 07:03:42 | 显示全部楼层 |阅读模式


◎译  名 通勤营救 / 疾速救援(台) / 追命列车(港)
◎片  名 The Commuter
◎年  代 2018
◎产  地 美国 / 英国
◎类  别 动作 / 惊悚 / 犯罪
◎语  言 英语
◎上映日期 2018-01-12(美国) / 2018-03-30(中国大陆)
◎IMDb评分  6.3/10 from 98204 users
◎片  长 105分钟
◎导  演 佐米·希尔拉 Jaume Collet-Serra
◎编  剧 拜伦·维林格 Byron Willinger / 菲利普·德·布拉西 Philip de Blasi / 瑞安·恩格尔 Ryan Engle
◎主  演 连姆·尼森 Liam Neeson
       维拉·法米加 Vera Farmiga
       帕特里克·威尔森 Patrick Wilson
       乔纳森·班克斯 Jonathan Banks
       山姆·尼尔 Sam Neill
       伊丽莎白·麦戈文 Elizabeth McGovern
       基连·斯科特 Killian Scott
       沙扎德·拉蒂夫 Shazad Latif
       安迪·尼曼 Andy Nyman
       克拉拉·拉戈 Clara Lago
       罗兰·默勒 Roland M?ller
       弗洛伦斯·皮尤 Florence Pugh
       迪恩·查尔斯·查普曼 Dean-Charles Chapman
       埃拉-雷·史密斯 Ella-Rae Smith
       妮拉·阿利亚 Nila Aalia
       柯林·麦克法兰 Colin McFarlane
       寇布勒·霍尔德布鲁克-史密斯 Kobna Holdbrook-Smith
       亚当·那加提斯 Adam Nagaitis
       金斯利·本-阿德 Kingsley Ben-Adir
       戴姆森·伊德瑞斯 Damson Idris
       本·卡普兰 Ben Caplan
       利蒂希娅·赖特 Letitia Wright
       杰米·比米什 Jamie Beamish


◎标  签 动作 | 悬疑 | 犯罪 | 美国 | 火车 | 2018 | 剧情 | 惊悚

◎简  介  

  影片将故事设定在一列通勤列车上,一位十年如一日乘坐列车上下班的商界人士麦考利(连姆·尼森 饰),偶遇一位主动搭讪的“神秘乘客”乔安娜(维拉·法米加 饰)。乔安娜为麦考利提供了一个极具诱惑性的任务——找出车上的一位乘客,即可获得一笔巨额现金作为回报。但在寻找的过程中,麦考利逐渐发现自己卷入到一场致命的危险处境中。
  他是否能够从这辆“恐怖列车”中成功逃脱,背后又隐藏着怎样的惊天阴谋。随着列车不断加速,真相逐一揭开......
Video
ID                                       : 1
Format                                   : AVC
Format/Info                              : Advanced Video Codec
Format settings                          : CABAC / 5 Ref Frames
Format settings, CABAC                   : Yes
Format settings, Reference frames        : 5 frames
Codec ID                                 : V_MPEG4/ISO/AVC
Duration                                 : 1 h 44 min
Bit rate                                 : 9 992 kb/s
Width                                    : 1 920 pixels
Height                                   : 808 pixels
Display aspect ratio                     : 2.40:1
Frame rate mode                          : Constant
Frame rate                               : 23.976 FPS
Color space                              : YUV
Chroma subsampling                       : 4:2:0
Bit depth                                : 8 bits
Scan type                                : Progressive
Bits/(Pixel*Frame)                       : 0.269
Stream size                              : 7.32 GiB (65%)
Title                                    : The.Commuter.2018.1080p.BluRay.x264.TrueHD.7.1.Atmos-FGT
Writing library                          : x264 core 155 r2901 7d0ff22
Encoding settings                        : cabac=1 / ref=5 / deblock=1:0:0 / analyse=0x3:0x133 / me=umh / subme=7 / psy=1 / psy_rd=1.00:0.00 / mixed_ref=1 / me_range=16 / chroma_me=1 / trellis=1 / 8x8dct=1 / cqm=0 / deadzone=21,11 / fast_pskip=0 / chroma_qp_offset=-2 / threads=25 / lookahead_threads=4 / sliced_threads=0 / nr=0 / decimate=1 / interlaced=0 / bluray_compat=0 / constrained_intra=0 / bframes=3 / b_pyramid=2 / b_adapt=1 / b_bias=0 / direct=1 / weightb=1 / open_gop=0 / weightp=2 / keyint=250 / keyint_min=23 / scenecut=40 / intra_refresh=0 / rc_lookahead=40 / rc=2pass / mbtree=1 / bitrate=9992 / ratetol=1.0 / qcomp=0.60 / qpmin=0 / qpmax=69 / qpstep=4 / cplxblur=20.0 / qblur=0.5 / ip_ratio=1.40 / aq=1:1.00
Language                                 : English
Default                                  : Yes
Forced                                   : No

Audio #1
ID                                       : 2
Format                                   : MLP FBA 16-ch
Format/Info                              : Meridian Lossless Packing FBA with 16-channel presentation
Commercial name                          : Dolby TrueHD with Dolby Atmos
Codec ID                                 : A_TRUEHD
Duration                                 : 1 h 44 min
Bit rate mode                            : Variable
Bit rate                                 : 4 970 kb/s
Maximum bit rate                         : 6 402 kb/s
Channel(s)                               : 8 channels
Channel layout                           : L R C LFE Ls Rs Lb Rb
Sampling rate                            : 48.0 kHz
Frame rate                               : 1 200.000 FPS (40 SPF)
Compression mode                         : Lossless
Stream size                              : 3.64 GiB (32%)
Title                                    : The.Commuter.2018.1080p.BluRay.x264.TrueHD.7.1.Atmos-FGT
Language                                 : English
Default                                  : Yes
Forced                                   : No
Number of dynamic objects                : 15
Bed channel count                        : 1 channel
Bed channel configuration                : LFE

Audio #2
ID                                       : 3
Format                                   : AC-3
Format/Info                              : Audio Coding 3
Commercial name                          : Dolby Digital
Codec ID                                 : A_AC3
Duration                                 : 1 h 44 min
Bit rate mode                            : Constant
Bit rate                                 : 448 kb/s
Channel(s)                               : 6 channels
Channel layout                           : L R C LFE Ls Rs
Sampling rate                            : 48.0 kHz
Frame rate                               : 31.250 FPS (1536 SPF)
Compression mode                         : Lossy
Stream size                              : 336 MiB (3%)
Title                                    : The.Commuter.2018.1080p.BluRay.x264.TrueHD.7.1.Atmos-FGT
Language                                 : English
Service kind                             : Complete Main
Default                                  : No
Forced                                   : No

Text
ID                                       : 4
Format                                   : UTF-8
Codec ID                                 : S_TEXT/UTF8
Codec ID/Info                            : UTF-8 Plain Text
Duration                                 : 1 h 37 min
Bit rate                                 : 70 b/s
Count of elements                        : 1438
Stream size                              : 50.2 KiB (0%)
Title                                    : English-SRT
Language                                 : English
Default                                  : Yes
Forced                                   : No

Menu
00:00:00.000                             : en:00:00:00.000
00:05:38.255                             : en:00:05:38.255
00:12:23.493                             : en:00:12:23.493
00:16:54.472                             : en:00:16:54.472
00:25:36.118                             : en:00:25:36.118
00:32:20.855                             : en:00:32:20.855
00:41:37.954                             : en:00:41:37.954
00:44:38.217                             : en:00:44:38.217
00:52:38.989                             : en:00:52:38.989
00:59:30.650                             : en:00:59:30.650
01:04:50.845                             : en:01:04:50.845
01:11:53.517                             : en:01:11:53.517
01:20:23.318                             : en:01:20:23.318
01:25:23.160                             : en:01:25:23.160
01:30:45.648                             : en:01:30:45.648
01:37:26.340                             : en:01:37:26.340




                                                                                                                                                                                                        
                                                                                                                                                                                                                                                                                                                                                                                                                                                                                                                                                                                                                                                                                                                                                                                                                                                       7fe4da998f84226a8ad2c6f78eab7a0f.torrent (57.23 KB, 下载次数: 15)

回复

使用道具 举报

小黑屋|磁力链接吧 |网站地图

本网站所有资源来自网络,如无意中侵犯了您的权益,请发邮件至 [email protected],立即清除相关链接

GMT+8, 2020-9-26 14:37 , Processed in 0.092898 second(s), 23 queries .

Powered by Discuz! X3.2

© 2001-2013 Comsenz Inc.

快速回复 返回顶部 返回列表