磁力链接吧

 找回密码
 立即注册
搜索

移动迷宫3:死亡解药 Maze.Runner.The.Death.Cure.2018.1080p.BluRay.x264....

[复制链接]
百度云资源 发表于 2020-7-8 07:03:42 | 显示全部楼层 |阅读模式


◎译  名 移动迷宫3:死亡解药 / The Death Cure / 死亡解药 / 移动迷宫3
◎片  名 Maze Runner: The Death Cure
◎年  代 2018
◎产  地 美国
◎类  别 动作 / 科幻 / 冒险
◎语  言 英语
◎上映日期 2018-01-26(美国/中国大陆)
◎IMDb评分  6.2/10 from 105566 users
◎片  长 142分钟
◎导  演 韦斯·鲍尔 Wes Ball
◎编  剧 T·S·诺林 T.S. Nowlin / 詹姆斯·达什纳 James Dashner
◎主  演 迪伦·欧布莱恩 Dylan O'Brien
       卡雅·斯考达里奥 Kaya Scodelario
       李起弘 Ki Hong Lee
       托马斯·布罗迪-桑斯特 Thomas Brodie-Sangster
       罗莎·萨拉查 Rosa Salazar
       德克斯特·达登 Dexter Darden
       艾丹·吉伦 Aidan Gillen
       威尔·保尔特 Will Poulter
       吉安卡罗·埃斯波西托 Giancarlo Esposito
       沃尔顿·戈金斯 Walton Goggins
       派翠西娅·克拉克森 Patricia Clarkson
       巴里·佩珀 Barry Pepper


◎标  签 科幻 | 美国 | 冒险 | 动作 | 反乌托邦 | 2018 | 小说改编 | 悬疑

◎简  介  

  托马斯(迪伦·奥布莱恩饰)率领的林间斗士在经历了迷宫逃脱和末日丧尸的生死考验后,终于迎来最后的正邪较量。由托马斯、纽特(托马斯·桑斯特饰)等人领军的营救团队,耗时三年筹划营救被抓走的米诺,却意外地发现米诺不在劫获的那截火车上。经调查得知,米诺深陷在WCKD组织的控制之中,托马斯和纽特毅然决定起身前往被称为“最后之都”的人类最后净土,更不惜利用背叛林间斗士投身WCKD的特蕾莎(卡雅·斯考达里奥饰)闯入WCKD,营救米诺和其他人。
Video
ID                                       : 1
Format                                   : AVC
Format/Info                              : Advanced Video Codec
Format settings                          : CABAC / 5 Ref Frames
Format settings, CABAC                   : Yes
Format settings, ReFrames                : 5 frames
Codec ID                                 : V_MPEG4/ISO/AVC
Duration                                 : 2 h 23 min
Bit rate                                 : 9 369 kb/s
Width                                    : 1 920 pixels
Height                                   : 800 pixels
Display aspect ratio                     : 2.40:1
Frame rate mode                          : Constant
Frame rate                               : 23.976 FPS
Color space                              : YUV
Chroma subsampling                       : 4:2:0
Bit depth                                : 8 bits
Scan type                                : Progressive
Bits/(Pixel*Frame)                       : 0.254
Stream size                              : 9.41 GiB (65%)
Title                                    : Maze.Runner.The.Death.Cure.2018.1080p.BluRay.x264.DTS-HD.MA.7.1-FGT
Writing library                          : x264 core 155 r2901 7d0ff22
Encoding settings                        : cabac=1 / ref=5 / deblock=1:0:0 / analyse=0x3:0x133 / me=umh / subme=7 / psy=1 / psy_rd=1.00:0.00 / mixed_ref=1 / me_range=16 / chroma_me=1 / trellis=1 / 8x8dct=1 / cqm=0 / deadzone=21,11 / fast_pskip=0 / chroma_qp_offset=-2 / threads=25 / lookahead_threads=4 / sliced_threads=0 / nr=0 / decimate=1 / interlaced=0 / bluray_compat=0 / constrained_intra=0 / bframes=3 / b_pyramid=2 / b_adapt=1 / b_bias=0 / direct=1 / weightb=1 / open_gop=0 / weightp=2 / keyint=250 / keyint_min=23 / scenecut=40 / intra_refresh=0 / rc_lookahead=40 / rc=2pass / mbtree=1 / bitrate=9369 / ratetol=1.0 / qcomp=0.60 / qpmin=0 / qpmax=69 / qpstep=4 / cplxblur=20.0 / qblur=0.5 / ip_ratio=1.40 / aq=1:1.00
Language                                 : English
Default                                  : Yes
Forced                                   : No

Audio
ID                                       : 2
Format                                   : DTS
Format/Info                              : Digital Theater Systems
Format profile                           : MA / Core
Codec ID                                 : A_DTS
Duration                                 : 2 h 23 min
Bit rate mode                            : Variable / Constant
Bit rate                                 : 5 120 kb/s / 1 509 kb/s
Channel(s)                               : 8 channels / 6 channels
Channel positions                        : Front: L C R, Side: L R, Back: L R, LFE / Front: L C R, Side: L R, LFE
Sampling rate                            : 48.0 kHz
Frame rate                               : 93.750 FPS (512 SPF)
Bit depth                                : 24 bits
Compression mode                         : Lossless / Lossy
Stream size                              : 5.15 GiB (35%)
Title                                    : Maze.Runner.The.Death.Cure.2018.1080p.BluRay.x264.DTS-HD.MA.7.1-FGT
Language                                 : English
Default                                  : Yes
Forced                                   : No

Text
ID                                       : 3
Format                                   : UTF-8
Codec ID                                 : S_TEXT/UTF8
Codec ID/Info                            : UTF-8 Plain Text
Duration                                 : 2 h 15 min
Bit rate                                 : 36 b/s
Count of elements                        : 1478
Stream size                              : 36.2 KiB (0%)
Title                                    : English-SRT
Language                                 : English
Default                                  : Yes
Forced                                   : No

Menu
00:00:00.000                             : en:00:00:00.000
00:11:31.608                             : en:00:11:31.608
00:15:59.750                             : en:00:15:59.750
00:20:08.457                             : en:00:20:08.457
00:24:34.890                             : en:00:24:34.890
00:30:40.547                             : en:00:30:40.547
00:36:47.330                             : en:00:36:47.330
00:43:15.343                             : en:00:43:15.343
00:48:06.342                             : en:00:48:06.342
00:55:17.397                             : en:00:55:17.397
01:02:42.926                             : en:01:02:42.926
01:07:14.489                             : en:01:07:14.489
01:11:56.062                             : en:01:11:56.062
01:15:48.210                             : en:01:15:48.210
01:23:20.329                             : en:01:23:20.329
01:29:45.422                             : en:01:29:45.422
01:34:00.593                             : en:01:34:00.593
01:40:09.795                             : en:01:40:09.795
01:43:33.082                             : en:01:43:33.082
01:53:38.645                             : en:01:53:38.645
01:59:43.885                             : en:01:59:43.885
02:04:49.399                             : en:02:04:49.399
02:10:03.087                             : en:02:10:03.087
02:18:03.859                             : en:02:18:03.859




                                                                                                                                                                                                        
                                                                                                                                                                                                                                                                                                                                                                                                                                                                                                                                                                                                                                                                                                                                                                                                                                                       88299d617af963d5c0003b685f7f1632.torrent (73.39 KB, 下载次数: 7)

回复

使用道具 举报

小黑屋|磁力链接吧 |网站地图

本网站所有资源来自网络,如无意中侵犯了您的权益,请发邮件至 [email protected],立即清除相关链接

GMT+8, 2020-9-18 18:24 , Processed in 0.110155 second(s), 23 queries .

Powered by Discuz! X3.2

© 2001-2013 Comsenz Inc.

快速回复 返回顶部 返回列表