磁力链接吧

 找回密码
 立即注册
搜索

英雄本色2018 A.Better.Tomorrow.2018.CHINESE.1080p.BluRay.x264.DD5.1-FGT 9...

[复制链接]
百度云资源 发表于 2020-7-8 07:03:42 | 显示全部楼层 |阅读模式


◎译  名 A Better Tomorrow 2018 / 英雄本色4
◎片  名 英雄本色2018
◎年  代 2018
◎产  地 中国大陆 / 中国香港
◎类  别 剧情 / 动作
◎语  言 汉语普通话
◎上映日期 2018-01-18(中国大陆)
◎IMDb评分  5.0/10 from 412 users
◎片  长 114分钟
◎导  演 丁晟 Sheng Ding
◎编  剧 丁晟 Sheng Ding / 许阳 Yang Xu
◎主  演 王凯 Kai Wang
       马天宇 Ray Ma
       王大陆 Darren Wang
       余皑磊 Ailei Yu
       林雪 Suet Lam
       吴樾 Yue Wu
       李梦 Meng Li
       张艺上 Yishang Zhang
       姜珮瑶 Peiyao Jiang
       李岷城 Mincheng Li
       宁浩 Hao Ning
       韩寒 Han Han
       丁晟 Sheng Ding
       曾志伟 Eric Tsang


◎标  签 兄弟 | 警匪 | 动作 | 中国大陆 | 热血 | 2018 | 剧情 | 人性

◎简  介  

  周凯(王凯 饰)参与走私,被身为缉毒警察的弟弟周超(马天宇 饰)逮捕入狱。三年后,周凯出狱,改过自新。曾经的手下阿仓(余皑磊 饰)已为毒贩头目,为获取周凯的海外客户资料,设计加害周凯。江湖中的好兄弟马柯(王大陆 饰)为了替周凯报仇,失去一条腿。自己的亲弟弟周超不相信哥哥周凯已金盆洗手,不断搜集证据,欲亲手逮捕周凯。最终,周凯与警方合作,逮捕了阿仓,两兄弟重归于好。

◎获奖情况  

  第4届豆瓣电影年度榜单(2017)
  最值得期待的华语电影(提名)
Video
ID                                       : 1
Format                                   : AVC
Format/Info                              : Advanced Video Codec
Format settings                          : CABAC / 4 Ref Frames
Format settings, CABAC                   : Yes
Format settings, ReFrames                : 4 frames
Codec ID                                 : V_MPEG4/ISO/AVC
Duration                                 : 1 h 53 min
Bit rate                                 : 11.5 Mb/s
Width                                    : 1 920 pixels
Height                                   : 804 pixels
Display aspect ratio                     : 2.40:1
Frame rate mode                          : Constant
Frame rate                               : 24.000 FPS
Color space                              : YUV
Chroma subsampling                       : 4:2:0
Bit depth                                : 8 bits
Scan type                                : Progressive
Bits/(Pixel*Frame)                       : 0.310
Stream size                              : 9.02 GiB (95%)
Title                                    : A.Better.Tomorrow.2018.CHINESE.1080p.BluRay.x264.DD5.1-FGT
Writing library                          : x264 core 148 r2795M aaa9aa8
Encoding settings                        : cabac=1 / ref=4 / deblock=1:-2:-2 / analyse=0x3:0x113 / me=umh / subme=9 / psy=1 / psy_rd=1.00:0.15 / mixed_ref=1 / me_range=16 / chroma_me=1 / trellis=2 / 8x8dct=1 / cqm=0 / deadzone=21,11 / fast_pskip=1 / chroma_qp_offset=-3 / threads=24 / lookahead_threads=3 / sliced_threads=0 / nr=0 / decimate=1 / interlaced=0 / bluray_compat=0 / constrained_intra=0 / bframes=3 / b_pyramid=2 / b_adapt=2 / b_bias=0 / direct=3 / weightb=1 / open_gop=0 / weightp=2 / keyint=250 / keyint_min=25 / scenecut=40 / intra_refresh=0 / rc_lookahead=50 / rc=abr / mbtree=1 / bitrate=11500 / ratetol=1.0 / qcomp=0.60 / qpmin=0 / qpmax=69 / qpstep=4 / vbv_maxrate=31250 / vbv_bufsize=31250 / nal_hrd=none / filler=0 / ip_ratio=1.40 / aq=1:1.00
Language                                 : Chinese
Default                                  : Yes
Forced                                   : No

Audio
ID                                       : 2
Format                                   : AC-3
Format/Info                              : Audio Coding 3
Codec ID                                 : A_AC3
Duration                                 : 1 h 53 min
Bit rate mode                            : Constant
Bit rate                                 : 640 kb/s
Channel(s)                               : 6 channels
Channel positions                        : Front: L C R, Side: L R, LFE
Sampling rate                            : 48.0 kHz
Frame rate                               : 31.250 FPS (1536 SPF)
Bit depth                                : 16 bits
Compression mode                         : Lossy
Stream size                              : 521 MiB (5%)
Title                                    : A.Better.Tomorrow.2018.CHINESE.1080p.BluRay.x264.DD5.1-FGT
Language                                 : Chinese
Service kind                             : Complete Main
Default                                  : Yes
Forced                                   : No

Text
ID                                       : 3
Format                                   : UTF-8
Codec ID                                 : S_TEXT/UTF8
Codec ID/Info                            : UTF-8 Plain Text
Duration                                 : 1 h 47 min
Bit rate                                 : 41 b/s
Count of elements                        : 1426
Stream size                              : 33.0 KiB (0%)
Title                                    : English
Language                                 : English
Default                                  : Yes
Forced                                   : Yes

Menu
00:00:00.000                             : en:Chapter 01
00:04:53.541                             : en:Chapter 02
00:10:22.833                             : en:Chapter 03
00:16:43.125                             : en:Chapter 04
00:23:15.041                             : en:Chapter 05
00:30:05.250                             : en:Chapter 06
00:38:46.208                             : en:Chapter 07
00:42:03.833                             : en:Chapter 08
00:46:45.791                             : en:Chapter 09
00:51:35.708                             : en:Chapter 10
00:56:53.791                             : en:Chapter 11
01:03:33.458                             : en:Chapter 12
01:08:25.666                             : en:Chapter 13
01:16:38.291                             : en:Chapter 14
01:23:25.916                             : en:Chapter 15
01:29:41.833                             : en:Chapter 16
01:32:27.250                             : en:Chapter 17
01:38:44.666                             : en:Chapter 18
01:45:44.333                             : en:Chapter 19
01:50:26.041                             : en:Chapter 20




                                                                                                                                                                                                        
                                                                                                                                                                                                                                                                                                                                                                                                                                                                                                                                                                                                                                                                                                                                                                                                                                                       673b83b0b6a67db251e17a7b4ffe6396.torrent (95.91 KB, 下载次数: 13)

回复

使用道具 举报

小黑屋|磁力链接吧 |网站地图

本网站所有资源来自网络,如无意中侵犯了您的权益,请发邮件至 [email protected],立即清除相关链接

GMT+8, 2020-9-26 13:52 , Processed in 0.099207 second(s), 23 queries .

Powered by Discuz! X3.2

© 2001-2013 Comsenz Inc.

快速回复 返回顶部 返回列表