磁力链接吧

 找回密码
 立即注册
搜索

阿蒂克 Artik.2019.720p.BluRay.x264-RUSTED 2.64GB

[复制链接]
百度云资源 发表于 2020-5-5 18:18:30 | 显示全部楼层 |阅读模式
帖子完整标题:阿蒂克 Artik.2019.720p.BluRay.x264-RUSTED 2.64GB




◎译  名 阿蒂克
◎片  名 Artik
◎年  代 2018
◎产  地 美国
◎类  别 恐怖
◎语  言 英语
◎上映日期 2019-08-11(美国) / 2019-09-11(乌克兰)
◎IMDb评分  4.4/10 from 514 users
◎片  长 78分钟
◎导  演 Tom Botchii Skowronski
◎编  剧 Tom Botchii Skowronski
◎主  演 蔡斯·威廉逊 Chase Williamson
       杰瑞·G·安格罗 Jerry G. Angelo
       劳伦·阿什利·卡特 Lauren Ashley Carter
       马修·默瑟 Matt Mercer
       Gavin White
       大卫·罗宾斯 David Robbins
       Kari White


◎标  签 美国电影 | 惊悚 | 恐怖 | 大烂片 | [歐美]

◎简  介  

  A comic book obsessed serial killer teaches his son how to get away with a series of brutal murders until the boy befriends a mysterious man who threatens to expose the families horrifying secret.
Video
ID                                       : 1
Format                                   : AVC
Format/Info                              : Advanced Video Codec
Format settings                          : CABAC / 5 Ref Frames
Format settings, CABAC                   : Yes
Format settings, Reference frames        : 5 frames
Codec ID                                 : V_MPEG4/ISO/AVC
Duration                                 : 1 h 16 min
Bit rate                                 : 4 202 kb/s
Width                                    : 1 280 pixels
Height                                   : 576 pixels
Display aspect ratio                     : 2.222
Frame rate mode                          : Constant
Frame rate                               : 23.976 (24000/1001/189150) FPS
Color space                              : YUV
Chroma subsampling                       : 4:2:0
Bit depth                                : 8 bits
Scan type                                : Progressive
Bits/(Pixel*Frame)                       : 0.238
Stream size                              : 2.23 GiB (84%)
Writing library                          : x264 core 159 r2991 1771b55
Encoding settings                        : cabac=1 / ref=5 / deblock=1:-1:-1 / analyse=0x3:0x133 / me=umh / subme=8 / psy=1 / psy_rd=1.00:0.15 / mixed_ref=1 / me_range=16 / chroma_me=1 / trellis=1 / 8x8dct=1 / cqm=0 / deadzone=21,11 / fast_pskip=0 / chroma_qp_offset=-4 / threads=18 / lookahead_threads=3 / sliced_threads=0 / nr=0 / decimate=1 / interlaced=0 / bluray_compat=0 / constrained_intra=0 / bframes=3 / b_pyramid=2 / b_adapt=2 / b_bias=0 / direct=3 / weightb=1 / open_gop=0 / weightp=2 / keyint=240 / keyint_min=23 / scenecut=40 / intra_refresh=0 / rc_lookahead=50 / rc=2pass / mbtree=1 / bitrate=4202 / ratetol=1.0 / qcomp=0.60 / qpmin=10 / qpmax=69 / qpstep=4 / cplxblur=20.0 / qblur=0.5 / ip_ratio=1.40 / aq=1:1.00
Language                                 : English
Default                                  : Yes
Forced                                   : No

Audio
ID                                       : 2
Format                                   : DTS
Format/Info                              : Digital Theater Systems
Codec ID                                 : A_DTS
Duration                                 : 1 h 16 min
Bit rate mode                            : Constant
Bit rate                                 : 768 kb/s
Channel(s)                               : 6 channels
Channel layout                           : C L R Ls Rs LFE
Sampling rate                            : 48.0 kHz
Frame rate                               : 93.750 FPS (512 SPF)
Bit depth                                : 24 bits
Compression mode                         : Lossy
Stream size                              : 418 MiB (15%)
Language                                 : English
Default                                  : Yes
Forced                                   : No

Menu
00:00:00.000                             : en:00:00:00.000
00:05:40.632                             : en:00:05:40.632
00:14:59.982                             : en:00:14:59.982
00:18:51.756                             : en:00:18:51.756
00:23:47.468                             : en:00:23:47.468
00:32:01.378                             : en:00:32:01.378
00:38:59.629                             : en:00:38:59.629
00:43:08.920                             : en:00:43:08.920
00:48:03.297                             : en:00:48:03.297
00:56:33.265                             : en:00:56:33.265
01:01:11.626                             : en:01:01:11.626
01:07:20.828                             : en:01:07:20.828



                                                                                                                                                                                                        
                                                                                                                                                                                                                                                                                                                                                                                                                                                                                                                                                                                                                                                                                                                                                                                                                                                       30b2e197f235f417b5c68f893a885bf1.torrent (27.07 KB, 下载次数: 3)

回复

使用道具 举报

小黑屋|磁力链接吧 |网站地图

本网站所有资源来自网络,如无意中侵犯了您的权益,请发邮件至 [email protected],立即清除相关链接

GMT+8, 2020-7-15 07:06 , Processed in 0.061309 second(s), 23 queries .

Powered by Discuz! X3.2

© 2001-2013 Comsenz Inc.

快速回复 返回顶部 返回列表