磁力链接吧

 找回密码
 立即注册
搜索

哆啦A梦:大雄的月球探险记/哆啦A梦剧场版:大雄的月面探查...

[复制链接]
百度云资源 发表于 2020-2-11 23:23:03 | 显示全部楼层 |阅读模式
帖子完整标题:哆啦A梦:大雄的月球探险记/哆啦A梦剧场版:大雄的月面探查记 Doraemon.The.Movie.Nobitas.Chronicle.of.The.Moon.Exploration.2019.JAPANESE.1080p.BluRay.x264.DTS-iKiW 8.47GB




◎译  名 哆啦A梦:大雄的月球探险记 / 哆啦A梦剧场版:大雄的月面探查记 / 哆啦A梦:大雄的月球探测记 / 哆啦A梦:月球探险记
◎片  名 映画ドラえもん のび太の月面探査記
◎年  代 2019
◎产  地 日本
◎类  别 剧情 / 动画
◎语  言 日语
◎上映日期 2019-03-01(日本) / 2019-06-01(中国大陆)
◎IMDb评分  6.7/10 from 260 users
◎片  长 111分钟
◎导  演 八锹新之介 Shinnosuke Yakuwa
◎编  剧 藤子·F·不二雄 F. Fujio Fujiko / 辻村深月 Mizuki Tsujimura
◎主  演 水田山葵 Wasabi Mizuta
       大原惠美 Megumi Oohara
       嘉数由美 Yumi Kakazu
       木村昴 Subaru Kimura
       关智一 Tomokazu Seki
       大谷育江 Ikue Ootani
       皆川纯子 Junko Minagawa
       铃木晶子 Suzuki Akiko
       渡边明乃 Akeno Watanabe
       广濑爱丽丝 Alice Hirose
       中冈创一 Souichi Nakaoka
       吉田钢太郎 K?tar? Yoshida
       柳乐优弥 Y?ya Yagira
       高桥茂雄 Shigeo Takahashi
       高木涉 Wataru Takagi
       松本保典 Yasunori Matsumoto
       荻野志保子 Shihoko Hagino
       庆长佑香 Keichō Yuka
       矢口麻美 Yaguchi Asami
       寺岛拓笃 Takuma Terashima
       三石琴乃 Kotono Mitsuishi
       武田幸史 Takeda Kouji
       生天目仁美 Hitomi Nabatame
       金光宣明
       村濑迪与 Michiyo Murase
       鸟海胜美
       小原好美 Konomi Kohara
       酒井蓝


◎标  签 日本 | 动画 | 2019 | 动漫 | 童年 | 奇幻 | 冒险 | 科幻

◎简  介  

  月球探测器在月亮上捕捉到了白影,大雄认为这道白影是月亮上的兔子,惹来了大家的耻笑,于是哆啦A 梦为了帮助大雄,利用道具“异说俱乐部徽章”,在月球背面制造了一个兔子王国。一天,神秘少年露卡转学而来,与大雄和伙伴们一同前往月亮上的月兔王国展开了一场别开生面的浪漫想象力之旅。
Video
ID                                       : 1
Format                                   : AVC
Format/Info                              : Advanced Video Codec
Format settings                          : CABAC / 4 Ref Frames
Format settings, CABAC                   : Yes
Format settings, Reference frames        : 4 frames
Codec ID                                 : V_MPEG4/ISO/AVC
Duration                                 : 1 h 50 min
Bit rate                                 : 9 400 kb/s
Width                                    : 1 920 pixels
Height                                   : 1 080 pixels
Display aspect ratio                     : 16:9
Frame rate mode                          : Constant
Frame rate                               : 23.976 (24000/1001) FPS
Color space                              : YUV
Chroma subsampling                       : 4:2:0
Bit depth                                : 8 bits
Scan type                                : Progressive
Bits/(Pixel*Frame)                       : 0.189
Stream size                              : 7.27 GiB (86%)
Writing library                          : x264 core 130 r2273 b3065e6
Encoding settings                        : cabac=1 / ref=4 / deblock=1:-1:-1 / analyse=0x3:0x113 / me=umh / subme=11 / psy=1 / psy_rd=1.00:0.00 / mixed_ref=1 / me_range=32 / chroma_me=1 / trellis=2 / 8x8dct=1 / cqm=0 / deadzone=21,11 / fast_pskip=0 / chroma_qp_offset=-4 / threads=12 / lookahead_threads=2 / sliced_threads=0 / nr=0 / decimate=0 / interlaced=0 / bluray_compat=0 / constrained_intra=0 / bframes=8 / b_pyramid=2 / b_adapt=2 / b_bias=0 / direct=3 / weightb=1 / open_gop=0 / weightp=2 / keyint=250 / keyint_min=23 / scenecut=40 / intra_refresh=0 / rc=2pass / mbtree=0 / bitrate=9400 / ratetol=1.0 / qcomp=0.60 / qpmin=0 / qpmax=69 / qpstep=4 / cplxblur=20.0 / qblur=0.5 / ip_ratio=1.40 / pb_ratio=1.30 / aq=1:0.85
Language                                 : English
Default                                  : Yes
Forced                                   : No

Audio
ID                                       : 2
Format                                   : DTS
Format/Info                              : Digital Theater Systems
Codec ID                                 : A_DTS
Duration                                 : 1 h 50 min
Bit rate mode                            : Constant
Bit rate                                 : 1 509 kb/s
Channel(s)                               : 6 channels
Channel layout                           : C L R Ls Rs LFE
Sampling rate                            : 48.0 kHz
Frame rate                               : 93.750 FPS (512 SPF)
Bit depth                                : 24 bits
Compression mode                         : Lossy
Stream size                              : 1.17 GiB (14%)
Title                                    : Japanese
Language                                 : Japanese
Default                                  : Yes
Forced                                   : No

Text
ID                                       : 3
Format                                   : UTF-8
Codec ID                                 : S_TEXT/UTF8
Codec ID/Info                            : UTF-8 Plain Text
Duration                                 : 1 h 49 min
Bit rate                                 : 46 b/s
Count of elements                        : 1652
Stream size                              : 37.5 KiB (0%)
Language                                 : English
Default                                  : Yes
Forced                                   : No



                                                                                                                                                                                                        
                                                                                                                                                                                                                                                                                                                                                                                                                                                                                                                                                                                                                                                                                                                                                                                                                                                      
73fc9a456b80e4e6d40ca4a420196827.torrent (42.99 KB, 下载次数: 22)

回复

使用道具 举报

小黑屋|磁力链接吧 |网站地图

本网站所有资源来自网络,如无意中侵犯了您的权益,请发邮件至 [email protected],立即清除相关链接

GMT+8, 2020-2-20 08:07 , Processed in 0.065781 second(s), 23 queries .

Powered by Discuz! X3.2

© 2001-2013 Comsenz Inc.

快速回复 返回顶部 返回列表