磁力链接吧

 找回密码
 立即注册
搜索

名侦探柯南:绀青之拳 Detective.Conan.The.Fist.of.Blue.Sapphire.2019.J...

[复制链接]
百度云资源 发表于 2020-2-11 23:23:03 | 显示全部楼层 |阅读模式
帖子完整标题:名侦探柯南:绀青之拳 Detective.Conan.The.Fist.of.Blue.Sapphire.2019.JAPANESE.1080p.BluRay.x264-iKiW 10.38GB




◎译  名 名侦探柯南:绀青之拳 / Detective Conan: The Fist of Blue Sapphire / 名侦探柯南2019 / 名侦探柯南:深蓝之拳
◎片  名 名探偵コナン 紺青の拳
◎年  代 2019
◎产  地 日本
◎类  别 动画 / 悬疑
◎语  言 日语
◎上映日期 2019-04-12(日本) / 2019-09-13(中国大陆)
◎IMDb评分  6.2/10 from 753 users
◎片  长 110分钟
◎导  演 永冈智佳 Nagaoka Chika
◎编  剧 大仓崇裕 Takahiro Ohkura / 青山刚昌 G?sh? Aoyama
◎主  演 高山南 Minami Takayama
       山口胜平 Kappei Yamaguchi
       山崎和佳奈 Wakana Yamazaki
       小山力也 Rikiya Koyama
       绪方贤一 Kenichi Ogata
       岩居由希子 Yukiko Iwai
       高木涉 Wataru Takagi
       大谷育江 Ikue Ootani
       林原惠美 Megumi Hayashibara
       松井菜樱子 Naoko Matsui
       桧山修之 Nobuyuki Hiyama
       石井康嗣 K?ji Ishii
       浅川悠 Yu Asakawa
       高桥广树 Hiroki Takahashi
       梶裕贵 Y?ki Kaji
       间宫康弘 Yasuhiro Mamiya
       林修
       河北麻由子
       山崎育三郎 Ikusaburou Yamazaki


◎标  签 日本 | 动画 | 怪盜基德 | 侦探 | 推理 | 2019 | 悬疑 | 漫画改编

◎简  介  

  “名侦探柯南系列”第23部动画剧场版,票房和口碑也屡破纪录。作为平成年代最后一部柯南电影,首次将案件发生地设立在海外,基德时隔四年后再度回归,与柯南合体展开行动。
  故事围绕着19世纪末与海盗船一同沉入海底、世界上最大的蓝宝石“绀青之拳”展开。

◎获奖情况  

  第43届日本电影学院奖(2020)
  最佳动画片(提名)
Video
ID                                       : 1
Format                                   : AVC
Format/Info                              : Advanced Video Codec
Format settings                          : CABAC / 4 Ref Frames
Format settings, CABAC                   : Yes
Format settings, Reference frames        : 4 frames
Codec ID                                 : V_MPEG4/ISO/AVC
Duration                                 : 1 h 49 min
Bit rate                                 : 12.4 Mb/s
Width                                    : 1 920 pixels
Height                                   : 1 080 pixels
Display aspect ratio                     : 16:9
Frame rate mode                          : Constant
Frame rate                               : 23.976 (24000/1001) FPS
Color space                              : YUV
Chroma subsampling                       : 4:2:0
Bit depth                                : 8 bits
Scan type                                : Progressive
Bits/(Pixel*Frame)                       : 0.249
Stream size                              : 9.48 GiB (91%)
Writing library                          : x264 core 130 r2273 b3065e6
Encoding settings                        : cabac=1 / ref=4 / deblock=1:-1:-1 / analyse=0x3:0x113 / me=umh / subme=11 / psy=1 / psy_rd=1.00:0.00 / mixed_ref=1 / me_range=32 / chroma_me=1 / trellis=2 / 8x8dct=1 / cqm=0 / deadzone=21,11 / fast_pskip=0 / chroma_qp_offset=-4 / threads=12 / lookahead_threads=2 / sliced_threads=0 / nr=0 / decimate=0 / interlaced=0 / bluray_compat=0 / constrained_intra=0 / bframes=8 / b_pyramid=2 / b_adapt=2 / b_bias=0 / direct=3 / weightb=1 / open_gop=0 / weightp=2 / keyint=250 / keyint_min=23 / scenecut=40 / intra_refresh=0 / rc=2pass / mbtree=0 / bitrate=12400 / ratetol=1.0 / qcomp=0.60 / qpmin=0 / qpmax=69 / qpstep=4 / cplxblur=20.0 / qblur=0.5 / ip_ratio=1.40 / pb_ratio=1.30 / aq=1:0.90
Language                                 : English
Default                                  : Yes
Forced                                   : No

Audio #1
ID                                       : 2
Format                                   : AC-3
Format/Info                              : Audio Coding 3
Commercial name                          : Dolby Digital
Codec ID                                 : A_AC3
Duration                                 : 1 h 49 min
Bit rate mode                            : Constant
Bit rate                                 : 640 kb/s
Channel(s)                               : 6 channels
Channel layout                           : L R C LFE Ls Rs
Sampling rate                            : 48.0 kHz
Frame rate                               : 31.250 FPS (1536 SPF)
Bit depth                                : 16 bits
Compression mode                         : Lossy
Stream size                              : 501 MiB (5%)
Title                                    : ??¥èˉ-
Language                                 : Japanese
Service kind                             : Complete Main
Default                                  : Yes
Forced                                   : No


Text #1
ID                                       : 4
Format                                   : UTF-8
Codec ID                                 : S_TEXT/UTF8
Codec ID/Info                            : UTF-8 Plain Text
Duration                                 : 1 h 48 min
Bit rate                                 : 59 b/s
Count of elements                        : 1744
Stream size                              : 47.5 KiB (0%)
Language                                 : English
Default                                  : Yes
Forced                                   : No

Text #2
ID                                       : 5
Format                                   : ASS
Codec ID                                 : S_TEXT/ASS
Codec ID/Info                            : Advanced Sub Station Alpha
Duration                                 : 1 h 48 min
Bit rate                                 : 257 b/s
Count of elements                        : 2097
Compression mode                         : Lossless
Stream size                              : 204 KiB (0%)
Title                                    : chs
Language                                 : Chinese
Default                                  : No
Forced                                   : No



                                                                                                                                                                                                        
                                                                                                                                                                                                                                                                                                                                                                                                                                                                                                                                                                                                                                                                                                                                                                                                                                                      
9a6202252ef6f4293493703a1270b3ac.torrent (52.51 KB, 下载次数: 20)

回复

使用道具 举报

小黑屋|磁力链接吧 |网站地图

本网站所有资源来自网络,如无意中侵犯了您的权益,请发邮件至 [email protected],立即清除相关链接

GMT+8, 2020-2-20 07:01 , Processed in 0.066263 second(s), 23 queries .

Powered by Discuz! X3.2

© 2001-2013 Comsenz Inc.

快速回复 返回顶部 返回列表