磁力链接吧

 找回密码
 立即注册
搜索

假面饭店 Masquerade.Hotel.2019.JAPANESE.1080p.BluRay.x264.DTS-iKiW 10.99GB

[复制链接]
百度云资源 发表于 2020-2-11 23:23:03 | 显示全部楼层 |阅读模式
子完整标题:假面饭店 Masquerade.Hotel.2019.JAPANESE.1080p.BluRay.x264.DTS-iKiW 10.99GB




◎译  名 假面饭店 / The Masquerade Hotel / 假面酒店
◎片  名 マスカレード?ホテル
◎年  代 2019
◎产  地 日本
◎类  别 剧情 / 悬疑 / 犯罪
◎语  言 日语
◎上映日期 2019-01-18(日本)
◎IMDb评分  6.3/10 from 572 users
◎片  长 133分钟
◎导  演 铃木雅之 Masayuki Suzuki
◎编  剧 岡田道尚 / 东野圭吾 Keigo Higashino
◎主  演 木村拓哉 Takuya Kimura
       长泽雅美 Masami Nagasawa
       滨田岳 Gaku Hamada
       前田敦子 Atsuko Maeda
       笹野高史 Takashi Sasano
       高岛政宏 Masahiro Takashima
       菜菜绪 Nanao
       宇梶刚士 Takashi Ukaji
       桥本爱实 Manami Hashimoto
       田口浩正 Hiromasa Taguchi
       胜地凉 Ryo Katsuji
       生濑胜久 Katsuhisa Namase
       松隆子 Takako Matsu
       小日向文世 Fumiyo Kohinata
       梶原善 Zen Kajiwara
       泉泽祐希 Yuki Izumisawa
       筱井英介 Eisuke Sasai
       渡部笃郎 Atsuro Watabe
       石川恋 Ren Ishikawa
       东根作寿英 Toshihide Tonesaku
       鹤见辰吾 Shingo Tsurumi
       石桥凌 Ryo Ishibashi


◎标  签 木村拓哉 | 东野圭吾 | 日本 | 长泽雅美 | 日本电影 | 悬疑 | 推理 | 2019

◎简  介  

  刑警(木村拓哉)扮成服务生混入酒店,与酒店前台(长泽雅美 饰演)一起追查连续杀人事件的故事。鈴木雅之执导,预计2019年上映。
Video
ID                                       : 1
Format                                   : AVC
Format/Info                              : Advanced Video Codec
Format settings                          : CABAC / 5 Ref Frames
Format settings, CABAC                   : Yes
Format settings, Reference frames        : 5 frames
Codec ID                                 : V_MPEG4/ISO/AVC
Duration                                 : 2 h 13 min
Bit rate                                 : 11.1 Mb/s
Width                                    : 1 920 pixels
Height                                   : 804 pixels
Display aspect ratio                     : 2.40:1
Frame rate mode                          : Constant
Frame rate                               : 23.976 (24000/1001) FPS
Color space                              : YUV
Chroma subsampling                       : 4:2:0
Bit depth                                : 8 bits
Scan type                                : Progressive
Bits/(Pixel*Frame)                       : 0.299
Stream size                              : 10.3 GiB (93%)
Writing library                          : x264 core 129 r2245+704+36 8e61944 tMod+MixAQ [1:2:0 X86_64]
Encoding settings                        : cabac=1 / ref=5 / deblock=1:-3:-3 / analyse=0x3:0x133 / me=umh / subme=11 / psy=1 / fade_compensate=0.00 / psy_rd=1.05:0.10 / mixed_ref=1 / me_range=64 / chroma_me=1 / trellis=2 / 8x8dct=1 / cqm=0 / deadzone=21,11 / fast_pskip=0 / chroma_qp_offset=-3 / threads=18 / lookahead_threads=3 / sliced_threads=0 / nr=0 / decimate=0 / interlaced=0 / bluray_compat=0 / constrained_intra=0 / fgo=0 / bframes=10 / b_pyramid=2 / b_adapt=2 / b_bias=0 / direct=3 / weightb=1 / open_gop=0 / weightp=2 / keyint=250 / keyint_min=23 / scenecut=40 / intra_refresh=0 / rc=2pass / mbtree=0 / bitrate=11062 / ratetol=1.0 / qcomp=0.70 / qpmin=0 / qpmax=69 / qpstep=4 / cplxblur=20.0 / qblur=0.5 / ip_ratio=1.40 / pb_ratio=1.30 / aq=1 / aq-strength=0.90 / aq-sensitivity=10.00 / aq-ifactor=1.00 / aq-pfactor=1.00 / aq-bfactor=1.00 / aq2=0
Language                                 : Japanese
Default                                  : Yes
Forced                                   : No

Audio
ID                                       : 2
Format                                   : DTS
Format/Info                              : Digital Theater Systems
Codec ID                                 : A_DTS
Duration                                 : 2 h 13 min
Bit rate mode                            : Constant
Bit rate                                 : 768 kb/s
Channel(s)                               : 6 channels
Channel layout                           : C L R Ls Rs LFE
Sampling rate                            : 48.0 kHz
Frame rate                               : 93.750 FPS (512 SPF)
Bit depth                                : 24 bits
Compression mode                         : Lossy
Stream size                              : 731 MiB (6%)
Language                                 : Japanese
Default                                  : Yes
Forced                                   : No

Text #1
ID                                       : 3
Format                                   : UTF-8
Codec ID                                 : S_TEXT/UTF8
Codec ID/Info                            : UTF-8 Plain Text
Duration                                 : 2 h 9 min
Bit rate                                 : 60 b/s
Count of elements                        : 1762
Stream size                              : 57.3 KiB (0%)
Language                                 : English
Default                                  : Yes
Forced                                   : No

Text #2
ID                                       : 4
Format                                   : UTF-8
Codec ID                                 : S_TEXT/UTF8
Codec ID/Info                            : UTF-8 Plain Text
Duration                                 : 2 h 9 min
Bit rate                                 : 40 b/s
Count of elements                        : 1503
Stream size                              : 38.7 KiB (0%)
Title                                    : Simplified
Language                                 : Chinese
Default                                  : No
Forced                                   : No

Text #3
ID                                       : 5
Format                                   : UTF-8
Codec ID                                 : S_TEXT/UTF8
Codec ID/Info                            : UTF-8 Plain Text
Duration                                 : 2 h 9 min
Bit rate                                 : 40 b/s
Count of elements                        : 1503
Stream size                              : 38.7 KiB (0%)
Title                                    : Traditional
Language                                 : Chinese
Default                                  : No
Forced                                   : No

Menu
00:00:00.000                             : en:第 01 章
00:09:03.292                             : en:第 02 章
00:18:59.847                             : en:第 03 章
00:28:36.047                             : en:第 04 章
00:38:44.780                             : en:第 05 章
00:50:22.102                             : en:第 06 章
00:58:50.777                             : en:第 07 章
01:05:56.661                             : en:第 08 章
01:16:10.566                             : en:第 09 章
01:21:07.445                             : en:第 10 章
01:28:38.354                             : en:第 11 章
01:38:09.341                             : en:第 12 章
01:45:53.513                             : en:第 13 章
01:52:58.897                             : en:第 14 章
02:00:43.444                             : en:第 15 章
02:05:57.049                             : en:第 16 章



                                                                                                                                                                                                        
                                                                                                                                                                                                                                                                                                                                                                                                                                                                                                                                                                                                                                                                                                                                                                                                                                                      
97537689886fbdb6049c23ed983500b2.torrent (55.52 KB, 下载次数: 36)

回复

使用道具 举报

小黑屋|磁力链接吧 |网站地图

本网站所有资源来自网络,如无意中侵犯了您的权益,请发邮件至 [email protected],立即清除相关链接

GMT+8, 2020-9-23 08:46 , Processed in 0.119178 second(s), 23 queries .

Powered by Discuz! X3.2

© 2001-2013 Comsenz Inc.

快速回复 返回顶部 返回列表