磁力链接吧

 找回密码
 立即注册
搜索

飞翔吧!埼玉 Fly.Me.to.The.Saitama.2019.JAPANESE.1080p.BluRay.x264.DTS-...

[复制链接]
百度云资源 发表于 2020-2-11 23:23:03 | 显示全部楼层 |阅读模式
帖子完整标题:飞翔吧!埼玉 Fly.Me.to.The.Saitama.2019.JAPANESE.1080p.BluRay.x264.DTS-iKiW 8.50GB




◎译  名 飞翔吧!埼玉 / Fly Me to the Saitama / 飞翔琦玉
◎片  名 翔んで埼玉
◎年  代 2019
◎产  地 日本
◎类  别 喜剧
◎语  言 日语
◎上映日期 2019-01-11(上海日本新片展) / 2019-02-22(日本)
◎IMDb评分  6.7/10 from 294 users
◎片  长 107分钟
◎导  演 武内英树 Hideki Takeuchi
◎编  剧 德永友一 Yuichi Tokunaga / 魔夜峰央 Mineo Maya
◎主  演 二阶堂富美 Fumi Nikaidou
       神威乐斗 GACKT
       伊势谷友介 Y?suke Iseya
       京本政树 Masaki Ky?moto
       Brother Tom
       麻生久美子 Kumiko Aso
       岛崎遥香 Haruka Shimazaki
       成田凌 Ryo Narita
       间宫祥太朗 Shotaro Mamiya
       益若翼 Tsubasa Masuwaka
       武田久美子 Kumiko Takeda
       磨赤儿 Akaji Maro
       竹中直人 Naoto Takenaka
       中尾彬 Akira Nakao
       秋月三佳 Mika Akizuki


◎标  签 日本 | 喜剧 | 2019 | 漫画改编 | 搞笑 | 奇幻 | 黑色幽默 | 映画

◎简  介  

  住在埼玉的菅原一家,正开车前往东京,准备和未来的亲家见面。此时,车中电台播送起一则传说……故事发生在东京屈指可数的名校白鹏堂学院,事情要从学生会长坛之浦百美(二阶堂富美饰),和从美国转校而来的麻实丽(GACKT饰)相遇说起。外表气质不凡,看似东京人的丽,其实是埼玉县人。对丽明里暗里庇护着埼玉人的行为,百美感到不解,却又情不自禁被丽所吸引。渐渐地,故事发展成一场东京和埼玉之间的抗争,甚至连隔壁的千叶也被牵扯进来……

◎获奖情况  

  第43届日本电影学院奖(2020)
  最佳影片(提名)
  最佳导演(提名) 武内英树
  最佳编剧(提名)
  最佳男主角(提名) 神威乐斗
  最佳女主角(提名) 二阶堂富美
  最佳男配角(提名) 伊势谷友介
  最佳配乐(提名)
  最佳摄影(提名)
  最佳美术指导(提名)
  最佳照明(提名)
  最佳录音(提名)
  最佳剪辑(提名)

  第44届报知映画赏(2019)
  特别奖
Video
ID                                       : 1
Format                                   : AVC
Format/Info                              : Advanced Video Codec
Format settings                          : CABAC / 5 Ref Frames
Format settings, CABAC                   : Yes
Format settings, Reference frames        : 5 frames
Codec ID                                 : V_MPEG4/ISO/AVC
Duration                                 : 1 h 46 min
Bit rate                                 : 10.7 Mb/s
Width                                    : 1 920 pixels
Height                                   : 804 pixels
Display aspect ratio                     : 2.40:1
Frame rate mode                          : Constant
Frame rate                               : 23.976 (24000/1001) FPS
Color space                              : YUV
Chroma subsampling                       : 4:2:0
Bit depth                                : 8 bits
Scan type                                : Progressive
Bits/(Pixel*Frame)                       : 0.289
Stream size                              : 7.92 GiB (93%)
Writing library                          : x264 core 129 r2245+704+36 8e61944 tMod+MixAQ [1:2:0 X86_64]
Encoding settings                        : cabac=1 / ref=5 / deblock=1:-3:-3 / analyse=0x3:0x133 / me=umh / subme=11 / psy=1 / fade_compensate=0.00 / psy_rd=1.05:0.10 / mixed_ref=1 / me_range=64 / chroma_me=1 / trellis=2 / 8x8dct=1 / cqm=0 / deadzone=21,11 / fast_pskip=0 / chroma_qp_offset=-3 / threads=18 / lookahead_threads=3 / sliced_threads=0 / nr=0 / decimate=0 / interlaced=0 / bluray_compat=0 / constrained_intra=0 / fgo=0 / bframes=10 / b_pyramid=2 / b_adapt=2 / b_bias=0 / direct=3 / weightb=1 / open_gop=0 / weightp=2 / keyint=250 / keyint_min=23 / scenecut=40 / intra_refresh=0 / rc=2pass / mbtree=0 / bitrate=10682 / ratetol=1.0 / qcomp=0.70 / qpmin=0 / qpmax=69 / qpstep=4 / cplxblur=20.0 / qblur=0.5 / ip_ratio=1.40 / pb_ratio=1.30 / aq=1 / aq-strength=0.90 / aq-sensitivity=10.00 / aq-ifactor=1.00 / aq-pfactor=1.00 / aq-bfactor=1.00 / aq2=0
Language                                 : Japanese
Default                                  : Yes
Forced                                   : No

Audio
ID                                       : 2
Format                                   : DTS
Format/Info                              : Digital Theater Systems
Codec ID                                 : A_DTS
Duration                                 : 1 h 46 min
Bit rate mode                            : Constant
Bit rate                                 : 768 kb/s
Channel(s)                               : 6 channels
Channel layout                           : C L R Ls Rs LFE
Sampling rate                            : 48.0 kHz
Frame rate                               : 93.750 FPS (512 SPF)
Bit depth                                : 24 bits
Compression mode                         : Lossy
Stream size                              : 583 MiB (7%)
Language                                 : Japanese
Default                                  : Yes
Forced                                   : No

Text #1
ID                                       : 3
Format                                   : UTF-8
Codec ID                                 : S_TEXT/UTF8
Codec ID/Info                            : UTF-8 Plain Text
Duration                                 : 1 h 45 min
Bit rate                                 : 55 b/s
Count of elements                        : 1637
Stream size                              : 42.7 KiB (0%)
Language                                 : English
Default                                  : Yes
Forced                                   : No

Text #2
ID                                       : 4
Format                                   : ASS
Codec ID                                 : S_TEXT/ASS
Codec ID/Info                            : Advanced Sub Station Alpha
Duration                                 : 1 h 41 min
Bit rate                                 : 105 b/s
Count of elements                        : 1611
Compression mode                         : Lossless
Stream size                              : 78.5 KiB (0%)
Language                                 : Chinese
Default                                  : No
Forced                                   : No

Menu
00:00:00.000                             : en:第 01 章
00:07:29.323                             : en:第 02 章
00:18:32.903                             : en:第 03 章
00:27:14.090                             : en:第 04 章
00:34:55.259                             : en:第 05 章
00:38:55.499                             : en:第 06 章
00:48:23.150                             : en:第 07 章
00:58:27.003                             : en:第 08 章
01:05:19.248                             : en:第 09 章
01:12:53.327                             : en:第 10 章
01:18:59.359                             : en:第 11 章
01:29:27.904                             : en:第 12 章
01:34:21.906                             : en:第 13 章
01:39:55.990                             : en:第 14 章
01:42:12.960                             : en:第 15 章



                                                                                                                                                                                                        
                                                                                                                                                                                                                                                                                                                                                                                                                                                                                                                                                                                                                                                                                                                                                                                                                                                      
e449c3c01a24fcab2bffd6fff272025f.torrent (43.06 KB, 下载次数: 13)

回复

使用道具 举报

小黑屋|磁力链接吧 |网站地图

本网站所有资源来自网络,如无意中侵犯了您的权益,请发邮件至 [email protected],立即清除相关链接

GMT+8, 2020-2-20 07:14 , Processed in 0.083949 second(s), 23 queries .

Powered by Discuz! X3.2

© 2001-2013 Comsenz Inc.

快速回复 返回顶部 返回列表