磁力链接吧

 找回密码
 立即注册
搜索

平行世界·爱情故事 Parallel.World.Love.Story.2019.JAPANESE.1080p.BluRa... ...

[复制链接]
百度云资源 发表于 2020-2-11 23:23:03 | 显示全部楼层 |阅读模式
帖子完整标题:平行世界·爱情故事 Parallel.World.Love.Story.2019.JAPANESE.1080p.BluRay.x264.DTS-iKiW 8.99GB




◎译  名 平行世界·爱情故事 / Parallel World: Love Story / 平行世界的爱情故事(台)
◎片  名 パラレルワールド?ラブストーリー
◎年  代 2019
◎产  地 日本
◎类  别 爱情
◎语  言 日语
◎上映日期 2019-05-31(日本)
◎IMDb评分  5.9/10 from 87 users
◎片  长 108分钟
◎导  演 森义隆 Yoshitaka Mori
◎编  剧 东野圭吾 Keigo Higashino / 一雫ライオン Lion Hitoshizuku
◎主  演 玉森裕太 Yuta Tamamori
       吉冈里帆 Riho Yoshioka
       染谷将太 Sh?ta Sometani
       石田妮可 Nicole Ishida
       美村里江 Mimura
       水間ロン Ron Mizuma
       清水寻也 Hiroya Shimizu
       田口智朗 Tomorowo Taguchi
       筒井道隆 Michitaka Tsutsui


◎标  签 日本 | 东野圭吾 | 2019 | 爱情 | 小说改编 | 悬疑 | 科幻 | 电影

◎简  介  

  敦贺崇史与挚友智彦均从事脑科学前沿研究,十余年来情同手足。一日,智彦向他隆重介绍新结识的女友麻由子。他赫然发现,那竟是自己曾一见钟情但失之交臂的女子。
  崇史心中爱恨交织,被嫉妒与自责折磨得濒临崩溃。然而,一夕之间,麻由子竟已理所应当般和他生活在一起,并绝口不提智彦,原本致力人脑记忆研究的智彦也下落不明。
  崇史被巨大的不安紧紧攫住……

◎获奖情况  

  第43届日本电影学院奖(2020)
  最佳新人(提名) 吉冈里帆
Video
ID                                       : 1
Format                                   : AVC
Format/Info                              : Advanced Video Codec
Format settings                          : CABAC / 5 Ref Frames
Format settings, CABAC                   : Yes
Format settings, Reference frames        : 5 frames
Codec ID                                 : V_MPEG4/ISO/AVC
Duration                                 : 1 h 48 min
Bit rate                                 : 10.4 Mb/s
Width                                    : 1 920 pixels
Height                                   : 804 pixels
Display aspect ratio                     : 2.40:1
Frame rate mode                          : Constant
Frame rate                               : 23.976 (24000/1001) FPS
Color space                              : YUV
Chroma subsampling                       : 4:2:0
Bit depth                                : 8 bits
Scan type                                : Progressive
Bits/(Pixel*Frame)                       : 0.280
Stream size                              : 7.85 GiB (87%)
Writing library                          : x264 core 129 r2245+704+36 8e61944 tMod+MixAQ [1:2:0 X86_64]
Encoding settings                        : cabac=1 / ref=5 / deblock=1:-3:-3 / analyse=0x3:0x133 / me=umh / subme=11 / psy=1 / fade_compensate=0.00 / psy_rd=1.05:0.10 / mixed_ref=1 / me_range=32 / chroma_me=1 / trellis=2 / 8x8dct=1 / cqm=0 / deadzone=21,11 / fast_pskip=0 / chroma_qp_offset=-3 / threads=18 / lookahead_threads=3 / sliced_threads=0 / nr=0 / decimate=0 / interlaced=0 / bluray_compat=0 / constrained_intra=0 / fgo=0 / bframes=10 / b_pyramid=2 / b_adapt=2 / b_bias=0 / direct=3 / weightb=1 / open_gop=0 / weightp=2 / keyint=250 / keyint_min=23 / scenecut=40 / intra_refresh=0 / rc=2pass / mbtree=0 / bitrate=10368 / ratetol=1.0 / qcomp=0.70 / qpmin=0 / qpmax=69 / qpstep=4 / cplxblur=20.0 / qblur=0.5 / ip_ratio=1.40 / pb_ratio=1.30 / aq=1 / aq-strength=0.90 / aq-sensitivity=10.00 / aq-ifactor=1.00 / aq-pfactor=1.00 / aq-bfactor=1.00 / aq2=0
Language                                 : Japanese
Default                                  : Yes
Forced                                   : No

Audio
ID                                       : 2
Format                                   : DTS
Format/Info                              : Digital Theater Systems
Codec ID                                 : A_DTS
Duration                                 : 1 h 48 min
Bit rate mode                            : Constant
Bit rate                                 : 1 509 kb/s
Channel(s)                               : 6 channels
Channel layout                           : C L R Ls Rs LFE
Sampling rate                            : 48.0 kHz
Frame rate                               : 93.750 FPS (512 SPF)
Bit depth                                : 24 bits
Compression mode                         : Lossy
Stream size                              : 1.14 GiB (13%)
Language                                 : Japanese
Default                                  : Yes
Forced                                   : No

Text #1
ID                                       : 3
Format                                   : UTF-8
Codec ID                                 : S_TEXT/UTF8
Codec ID/Info                            : UTF-8 Plain Text
Duration                                 : 1 h 48 min
Bit rate                                 : 30 b/s
Count of elements                        : 911
Stream size                              : 24.3 KiB (0%)
Language                                 : English
Default                                  : Yes
Forced                                   : No

Text #2
ID                                       : 4
Format                                   : ASS
Codec ID                                 : S_TEXT/ASS
Codec ID/Info                            : Advanced Sub Station Alpha
Duration                                 : 1 h 47 min
Bit rate                                 : 62 b/s
Count of elements                        : 1050
Compression mode                         : Lossless
Stream size                              : 49.6 KiB (0%)
Title                                    : Simplified
Language                                 : Chinese
Default                                  : No
Forced                                   : No

Text #3
ID                                       : 5
Format                                   : ASS
Codec ID                                 : S_TEXT/ASS
Codec ID/Info                            : Advanced Sub Station Alpha
Duration                                 : 1 h 47 min
Bit rate                                 : 62 b/s
Count of elements                        : 1050
Compression mode                         : Lossless
Stream size                              : 49.6 KiB (0%)
Title                                    : Traditional
Language                                 : Chinese
Default                                  : No
Forced                                   : No

Menu
00:00:00.000                             : en:第 01 章
00:07:37.498                             : en:第 02 章
00:19:17.072                             : en:第 03 章
00:28:49.644                             : en:第 04 章
00:41:45.836                             : en:第 05 章
00:47:34.101                             : en:第 06 章
01:01:39.529                             : en:第 07 章
01:14:39.641                             : en:第 08 章
01:30:49.861                             : en:第 09 章



                                                                                                                                                                                                        
                                                                                                                                                                                                                                                                                                                                                                                                                                                                                                                                                                                                                                                                                                                                                                                                                                                      
d12e7e999ff09ae3cd17d5374dd309d0.torrent (45.53 KB, 下载次数: 11)

回复

使用道具 举报

小黑屋|磁力链接吧 |网站地图

本网站所有资源来自网络,如无意中侵犯了您的权益,请发邮件至 [email protected],立即清除相关链接

GMT+8, 2020-9-23 09:03 , Processed in 0.113556 second(s), 23 queries .

Powered by Discuz! X3.2

© 2001-2013 Comsenz Inc.

快速回复 返回顶部 返回列表