磁力链接吧

 找回密码
 立即注册
搜索

新闻记者 The.Journalist.2019.JAPANESE.1080p.BluRay.x264.DTS-iKiW 9.35GB

[复制链接]
百度云资源 发表于 2020-2-11 23:23:03 | 显示全部楼层 |阅读模式
帖子完整标题:新闻记者 The.Journalist.2019.JAPANESE.1080p.BluRay.x264.DTS-iKiW 9.35GB




◎译  名 新闻记者
◎片  名 新聞記者
◎年  代 2019
◎产  地 日本
◎类  别 剧情 / 悬疑 / 惊悚
◎语  言 日语
◎上映日期 2019-06-28(日本)
◎IMDb评分  6.3/10 from 121 users
◎片  长 113分钟
◎导  演 藤井道人 Michihito Fujii
◎编  剧 望月衣塑子
◎主  演 沈恩京 Eun-kyung Shim
       松坂桃李 T?ri Matsuzaka
       本田翼 Tsubasa Honda
       西田尚美 Naomi Nishida


◎标  签 日本 | 日本电影 | 2019 | 政治 | 松坂桃李 | 社会 | 新闻记者 | 日影

◎简  介  

  该片以东京新闻记者望月衣塑子的小说为原案,描绘了逼近政治权力黑暗下的女性记者和追求理想公务员之道的精英官僚间的对峙故事。

◎获奖情况  

  第43届日本电影学院奖(2020)
  最佳影片(提名)
  最佳导演(提名) 藤井道人
  最佳编剧(提名)
  最佳男主角(提名) 松坂桃李
  最佳女主角(提名) 沈恩京
  最佳剪辑(提名)

  第32届东京国际电影节(2019)
  日本映画 最佳影片 藤井道人
Video
ID                                       : 1
Format                                   : AVC
Format/Info                              : Advanced Video Codec
Format settings                          : CABAC / 5 Ref Frames
Format settings, CABAC                   : Yes
Format settings, Reference frames        : 5 frames
Codec ID                                 : V_MPEG4/ISO/AVC
Duration                                 : 1 h 53 min
Bit rate                                 : 10.3 Mb/s
Width                                    : 1 920 pixels
Height                                   : 804 pixels
Display aspect ratio                     : 2.40:1
Frame rate mode                          : Constant
Frame rate                               : 23.976 (24000/1001) FPS
Color space                              : YUV
Chroma subsampling                       : 4:2:0
Bit depth                                : 8 bits
Scan type                                : Progressive
Bits/(Pixel*Frame)                       : 0.278
Stream size                              : 8.15 GiB (87%)
Writing library                          : x264 core 129 r2245+704+36 8e61944 tMod+MixAQ [1:2:0 X86_64]
Encoding settings                        : cabac=1 / ref=5 / deblock=1:-3:-3 / analyse=0x3:0x133 / me=umh / subme=11 / psy=1 / fade_compensate=0.00 / psy_rd=1.05:0.10 / mixed_ref=1 / me_range=32 / chroma_me=1 / trellis=2 / 8x8dct=1 / cqm=0 / deadzone=21,11 / fast_pskip=0 / chroma_qp_offset=-3 / threads=18 / lookahead_threads=3 / sliced_threads=0 / nr=0 / decimate=0 / interlaced=0 / bluray_compat=0 / constrained_intra=0 / fgo=0 / bframes=10 / b_pyramid=2 / b_adapt=2 / b_bias=0 / direct=3 / weightb=1 / open_gop=0 / weightp=2 / keyint=250 / keyint_min=23 / scenecut=40 / intra_refresh=0 / rc=2pass / mbtree=0 / bitrate=10280 / ratetol=1.0 / qcomp=0.70 / qpmin=0 / qpmax=69 / qpstep=4 / cplxblur=20.0 / qblur=0.5 / ip_ratio=1.40 / pb_ratio=1.30 / aq=1 / aq-strength=0.90 / aq-sensitivity=10.00 / aq-ifactor=1.00 / aq-pfactor=1.00 / aq-bfactor=1.00 / aq2=0
Language                                 : Japanese
Default                                  : Yes
Forced                                   : No

Audio
ID                                       : 2
Format                                   : DTS
Format/Info                              : Digital Theater Systems
Codec ID                                 : A_DTS
Duration                                 : 1 h 53 min
Bit rate mode                            : Constant
Bit rate                                 : 1 509 kb/s
Channel(s)                               : 6 channels
Channel layout                           : C L R Ls Rs LFE
Sampling rate                            : 48.0 kHz
Frame rate                               : 93.750 FPS (512 SPF)
Bit depth                                : 16 bits
Compression mode                         : Lossy
Stream size                              : 1.20 GiB (13%)
Language                                 : Japanese
Default                                  : Yes
Forced                                   : No

Text #1
ID                                       : 3
Format                                   : UTF-8
Codec ID                                 : S_TEXT/UTF8
Codec ID/Info                            : UTF-8 Plain Text
Duration                                 : 1 h 43 min
Bit rate                                 : 50 b/s
Count of elements                        : 1138
Stream size                              : 38.2 KiB (0%)
Language                                 : English
Default                                  : Yes
Forced                                   : No

Text #2
ID                                       : 4
Format                                   : ASS
Codec ID                                 : S_TEXT/ASS
Codec ID/Info                            : Advanced Sub Station Alpha
Duration                                 : 1 h 48 min
Bit rate                                 : 86 b/s
Count of elements                        : 1259
Compression mode                         : Lossless
Stream size                              : 68.4 KiB (0%)
Language                                 : Chinese
Default                                  : No
Forced                                   : No

Menu
00:00:00.000                             : en:第 01 章
00:10:37.595                             : en:第 02 章
00:21:51.685                             : en:第 03 章
00:30:53.351                             : en:第 04 章
00:41:16.056                             : en:第 05 章
00:50:02.791                             : en:第 06 章
01:02:03.636                             : en:第 07 章
01:11:15.104                             : en:第 08 章
01:23:20.453                             : en:第 09 章
01:31:37.074                             : en:第 10 章
01:41:33.545                             : en:第 11 章
01:48:26.500                             : en:第 12 章
01:53:32.806                             : en:第 13 章



                                                                                                                                                                                                        
                                                                                                                                                                                                                                                                                                                                                                                                                                                                                                                                                                                                                                                                                                                                                                                                                                                      
42b1760bddef77b29ec0ace1e0bef0f2.torrent (47.31 KB, 下载次数: 19)

回复

使用道具 举报

小黑屋|磁力链接吧 |网站地图

本网站所有资源来自网络,如无意中侵犯了您的权益,请发邮件至 [email protected],立即清除相关链接

GMT+8, 2020-9-23 07:42 , Processed in 0.133125 second(s), 23 queries .

Powered by Discuz! X3.2

© 2001-2013 Comsenz Inc.

快速回复 返回顶部 返回列表