磁力链接吧

 找回密码
 立即注册
搜索

小羊肖恩2:末日农场 A.Shaun.the.Sheep.Movie.Farmageddon.2019.1080p.Blu...

[复制链接]
百度云资源 发表于 2020-2-11 23:23:03 | 显示全部楼层 |阅读模式
帖子完整标题:小羊肖恩2:末日农场 A.Shaun.the.Sheep.Movie.Farmageddon.2019.1080p.BluRay.X264-AMIABLE 6.56GB




◎译  名 小羊肖恩2:末日农场 / Shaun the Sheep 2 / 小羊肖恩2 / 小羊肖恩2:大决战 / 小羊肖恩大电影2 / 小羊肖恩大电影:农场末日 / 小羊肖恩:农场末日 / 笑笑羊大电影2:外星人来了!(台)
◎片  名 Shaun the Sheep Movie: Farmageddon
◎年  代 2019
◎产  地 英国 / 法国 / 美国
◎类  别 喜剧 / 科幻 / 动画 / 冒险
◎语  言 英语
◎上映日期 2019-09-26(德国) / 2019-10-18(英国) / 2019-12-28(中国大陆)
◎片  长 87分钟
◎导  演 威尔·比彻 Will Becher / 理查德·费兰 Richard Phelan
◎编  剧 Jon Brown / 马克·伯顿 Mark Burton / 尼克·帕克 Nick Park
◎主  演 贾斯汀·弗莱彻 Justin Fletcher
       约翰·斯帕克斯 John Sparkes
       克里斯·莫雷尔 Chris Morrell
       安迪·尼曼 Andy Nyman
       戴维·霍尔特 David Holt
       凯特·哈伯 Kate Harbour
       阿玛莉亚·维塔莱 Amalia Vitale
       乔·萨格 Joe Sugg


◎标  签 动画 | 小羊肖恩 | 英国 | 喜剧 | 粘土 | 2019 | 动画长片 | 电影

◎简  介  

  宁静祥和的农场里,小羊肖恩和伙伴们大开脑洞,做着各种挑战生命极限的游戏。这可气坏了牧羊犬,他接二连三制定禁令,防止羊们兴风作浪。肖恩哪能随便被人摆布?他想出鬼点子,通过电话订购了披萨,谁知却引来了一个始料未及的不速之客。来者是一个名叫噜啦的外星宝宝。虽然语言不通,但通过肢体语言,肖恩终于弄清噜啦想要找到飞船回到自己的家乡。经过一番缜密的策划,肖恩终于和这个新朋友踏上寻找飞船的征途。与此同时,不明飞行物的造访在小镇引起轰动,同时也惊动了一个专门追寻外星生物的政府机构。
  本来一波三折的寻找飞船之旅,如今又加入了气势汹汹的对手,肖恩他们将面临前所未有的考验……

◎获奖情况  

  第73届英国电影学院奖(2020)
  电影奖 最佳动画片(提名)

  第22届英国独立电影奖(2019)
  最佳新人导演(提名) 理查德·费兰 / 威尔·比彻
  最佳视效

  第24届金卫星奖(2020)
  电影部门 最佳动画片(提名)

  第40届伦敦影评人协会奖(2020)
  技术成就奖(提名) 理查德·费兰 / 威尔·比彻
Video
ID                                       : 1
Format                                   : AVC
Format/Info                              : Advanced Video Codec
Format settings                          : CABAC / 5 Ref Frames
Format settings, CABAC                   : Yes
Format settings, Reference frames        : 5 frames
Codec ID                                 : V_MPEG4/ISO/AVC
Duration                                 : 1 h 26 min
Bit rate                                 : 9 307 kb/s
Width                                    : 1 920 pixels
Height                                   : 808 pixels
Display aspect ratio                     : 2.40:1
Frame rate mode                          : Constant
Frame rate                               : 24.000 FPS
Color space                              : YUV
Chroma subsampling                       : 4:2:0
Bit depth                                : 8 bits
Scan type                                : Progressive
Bits/(Pixel*Frame)                       : 0.250
Stream size                              : 5.51 GiB (84%)
Writing library                          : x264 core 159 r2991 1771b55
Encoding settings                        : cabac=1 / ref=5 / deblock=1:-3:-3 / analyse=0x3:0x113 / me=umh / subme=8 / psy=1 / psy_rd=1.00:0.00 / mixed_ref=1 / me_range=32 / chroma_me=1 / trellis=2 / 8x8dct=1 / cqm=0 / deadzone=21,11 / fast_pskip=1 / chroma_qp_offset=-2 / threads=24 / lookahead_threads=4 / sliced_threads=0 / nr=0 / decimate=1 / interlaced=0 / bluray_compat=0 / constrained_intra=0 / bframes=3 / b_pyramid=2 / b_adapt=2 / b_bias=0 / direct=3 / weightb=1 / open_gop=0 / weightp=2 / keyint=240 / keyint_min=24 / scenecut=40 / intra_refresh=0 / rc_lookahead=50 / rc=2pass / mbtree=1 / bitrate=9307 / ratetol=1.0 / qcomp=0.60 / qpmin=0 / qpmax=69 / qpstep=4 / cplxblur=20.0 / qblur=0.5 / ip_ratio=1.40 / aq=3:0.80
Default                                  : Yes
Forced                                   : No
Statistics Tags Issue                    : no_variable_data 1970-01-01 00:00:00 / no_variable_data 2010-02-22 21:41:29
FromStats_BitRate                        : 9305755
FromStats_Duration                       : 01:26:46.542000000
FromStats_FrameCount                     : 124957
FromStats_StreamSize                     : 6056350841

Audio
ID                                       : 2
Format                                   : DTS
Format/Info                              : Digital Theater Systems
Codec ID                                 : A_DTS
Duration                                 : 1 h 26 min
Bit rate mode                            : Constant
Bit rate                                 : 1 509 kb/s
Channel(s)                               : 6 channels
Channel layout                           : C L R Ls Rs LFE
Sampling rate                            : 48.0 kHz
Frame rate                               : 93.750 FPS (512 SPF)
Bit depth                                : 24 bits
Compression mode                         : Lossy
Stream size                              : 937 MiB (14%)
Language                                 : English
Default                                  : Yes
Forced                                   : No
Statistics Tags Issue                    : no_variable_data 1970-01-01 00:00:00 / no_variable_data 2010-02-22 21:41:29
FromStats_BitRate                        : 1508999
FromStats_Duration                       : 01:26:47.339000000
FromStats_FrameCount                     : 488188
FromStats_StreamSize                     : 982234256

Text #1
ID                                       : 3
Format                                   : UTF-8
Codec ID                                 : S_TEXT/UTF8
Codec ID/Info                            : UTF-8 Plain Text
Language                                 : English
Default                                  : No
Forced                                   : No
Statistics Tags Issue                    : no_variable_data 1970-01-01 00:00:00 / no_variable_data 2010-02-22 21:41:29
FromStats_BitRate                        : 2
FromStats_Duration                       : 01:26:14.000000000
FromStats_FrameCount                     : 262
FromStats_StreamSize                     : 1374

Text #2
ID                                       : 4
Format                                   : UTF-8
Codec ID                                 : S_TEXT/UTF8
Codec ID/Info                            : UTF-8 Plain Text
Title                                    : SDH
Language                                 : English
Default                                  : No
Forced                                   : No
Statistics Tags Issue                    : no_variable_data 1970-01-01 00:00:00 / no_variable_data 2010-02-22 21:41:29
FromStats_BitRate                        : 28
FromStats_Duration                       : 01:26:14.000000000
FromStats_FrameCount                     : 1178
FromStats_StreamSize                     : 18209

Menu
00:00:00.000                             : en:Chapter 01
00:06:22.208                             : en:Chapter 02
00:10:49.375                             : en:Chapter 03
00:17:31.500                             : en:Chapter 04
00:22:46.125                             : en:Chapter 05
00:32:52.000                             : en:Chapter 06
00:38:18.833                             : en:Chapter 07
00:44:27.667                             : en:Chapter 08
00:54:43.917                             : en:Chapter 09
01:00:59.208                             : en:Chapter 10
01:05:47.750                             : en:Chapter 11
01:12:25.042                             : en:Chapter 12



                                                                                                                                                                                                        
                                                                                                                                                                                                                                                                                                                                                                                                                                                                                                                                                                                                                                                                                                                                                                                                                                                      
6aa5887d60b132a72e95226bcd948a7e.torrent (33.81 KB, 下载次数: 18)

回复

使用道具 举报

小黑屋|磁力链接吧 |网站地图

本网站所有资源来自网络,如无意中侵犯了您的权益,请发邮件至 [email protected],立即清除相关链接

GMT+8, 2020-2-20 07:41 , Processed in 0.067933 second(s), 23 queries .

Powered by Discuz! X3.2

© 2001-2013 Comsenz Inc.

快速回复 返回顶部 返回列表