磁力链接吧

 找回密码
 立即注册
搜索

[BD-4K] 乔乔的异想世界/JOJO兔 Jojo.Rabbit.2019.2160p.BluRay.x265.10bit.SDR.DT...

[复制链接]
百度云资源 发表于 2020-2-11 21:56:46 | 显示全部楼层 |阅读模式
帖子完整标题:乔乔的异想世界/JOJO兔 Jojo.Rabbit.2019.2160p.BluRay.x265.10bit.SDR.DTS-HD.MA.5.1-SWTYBLZ 31.13GB




◎译  名 乔乔的异想世界 / JOJO兔 / 乔乔兔 / 兔嘲男孩(台) / 少年乔乔的异想世界 / 陽光兔仔兵 (港)
◎片  名 Jojo Rabbit
◎年  代 2019
◎产  地 美国 / 捷克 / 新西兰
◎类  别 剧情 / 喜剧 / 战争
◎语  言 英语 / 德语
◎上映日期 2019-09-08(多伦多电影节) / 2019-11-08(美国) / 2020(中国大陆)
◎IMDb评分  8.0/10 from 88626 users
◎片  长 108分钟
◎导  演 塔伊加·维迪提 Taika Waititi
◎编  剧 塔伊加·维迪提 Taika Waititi / 克里斯汀·勒南斯 Christine Leunens
◎主  演 罗曼·格里芬·戴维斯 Roman Griffin Davis
       托马辛·麦肯齐 Thomasin McKenzie
       斯嘉丽·约翰逊 Scarlett Johansson
       塔伊加·维迪提 Taika Waititi
       山姆·洛克威尔 Sam Rockwell
       蕾蓓尔·威尔森 Rebel Wilson
       阿尔菲·艾伦 Alfie Allen
       斯戴芬·莫昌特 Stephen Merchant
       阿奇·耶茨 Archie Yates
       卢克·布兰登·菲尔德 Luke Brandon Field
       山姆·海加斯 Sam Haygarth
       史丹斯拉夫·卡拉斯 Stanislav Callas
       乔·温特劳布 Joe Weintraub
       布莱恩·卡斯佩 Brian Caspe
       加布里埃尔·安德鲁斯 Gabriel Andrews
       罗伯特·伊斯特 Robert East
       比利·雷纳 Billy Rayner
       克里斯蒂安·豪林斯 Christian Howlings
       吉尔比·格里芬·戴维斯 Gilby Griffin Davis
       哈迪·格里芬·戴维斯 Hardy Griffin Davis
       柯蒂斯·马修 Curtis Matthew
       贝萨尼·亚当斯 Bethany Adams
       朱迪思·乔治 Judith Georgi
       维多利亚·霍根 Victoria Hogan


◎标  签 二战 | 喜剧 | 战争 | 美国 | 德国 | 剧情 | 奇幻 | 2019

◎简  介  

  二战时期,男孩乔乔(戴维斯)和母亲(斯嘉丽)生活在纳粹德国统治下,他不知道母亲在家中藏着一个犹太女孩(麦肯齐),而母亲秘密为抵抗军工作。乔乔渴望加入希特勒青年团,他脑内出了一个颠覆版的希特勒,这个希特勒有魅力、傻傻的、天真可爱,是他的朋友,帮助他应付生活中的困境。

◎获奖情况  

  第92届奥斯卡金像奖(2020)
  最佳影片(提名) 塔伊加·维迪提 / Carthew Neal
  最佳女配角(提名) 斯嘉丽·约翰逊
  最佳改编剧本(提名) 塔伊加·维迪提
  最佳剪辑(提名) 汤姆·伊格尔斯
  最佳艺术指导(提名)
  最佳服装设计(提名) 玛耶斯·C·鲁贝奥

  第77届金球奖(2020)
  电影类 最佳音乐/喜剧片(提名)
  电影类 音乐/喜剧片最佳男主角(提名) 罗曼·格里芬·戴维斯

  第73届英国电影学院奖(2020)
  电影奖 最佳女配角(提名) 斯嘉丽·约翰逊
  电影奖 最佳改编剧本 塔伊加·维迪提
  电影奖 最佳剪辑(提名) 汤姆·伊格尔斯
  电影奖 最佳服装设计(提名) 玛耶斯·C·鲁贝奥
  电影奖 最佳艺术指导(提名) 拉·文森特 / Nora Sopková
  电影奖 最佳原创配乐(提名) 迈克·吉亚奇诺

  第44届多伦多国际电影节(2019)
  观众选择奖 塔伊加·维迪提

  第72届美国导演工会奖(2020)
  最佳电影导演(提名) 塔伊加·维迪提

  第26届美国演员工会奖(2020)
  电影奖 最佳女配角(提名) 斯嘉丽·约翰逊
  电影奖 最佳群戏(提名)

  第72届美国编剧工会奖(2020)
  电影奖 最佳改编剧本 塔伊加·维迪提

  第31届美国制片人工会奖(2020)
  最佳电影制片人奖(提名)

  第70届美国剪辑工会奖(2020)
  音乐/喜剧片最佳剪辑 汤姆·伊格尔斯

  第24届美国艺术指导工会奖(2020)
  电影奖 最佳历史电影艺术指导(提名) 拉·文森特

  第22届美国服装设计工会奖(2020)
  年代电影最佳服装设计 玛耶斯·C·鲁贝奥

  第67届美国音效剪辑协会奖(2020)
  金卷轴奖 最佳电影对白剪辑(提名)

  第91届美国国家评论协会奖(2019)
  年度佳片

  第25届美国评论家选择电影奖(2020)
  最佳影片(提名)
  最佳女配角(提名) 斯嘉丽·约翰逊
  最佳青少年演员 罗曼·格里芬·戴维斯
  最佳青少年演员(提名) 托马辛·麦肯齐 / 阿奇·耶茨
  最佳喜剧片(提名)
  最佳改编剧本(提名) 塔伊加·维迪提

  第20届美国电影学会奖(2019)
  年度佳片

  第24届金卫星奖(2020)
  电影部门 喜剧/音乐片最佳男主角(提名) 塔伊加·维迪提
  电影部门 最佳改编剧本(提名) 塔伊加·维迪提

  第23届好莱坞电影奖(2019)
  年度摄影奖 小米哈伊·马拉米尔
  年度艺术指导 拉·文森特

  第18届华盛顿影评人协会奖(2019)
  最佳青少年表演 罗曼·格里芬·戴维斯

  第40届伦敦影评人协会奖(2020)
  年度英国/爱尔兰小演员(提名) 罗曼·格里芬·戴维斯

  第32届芝加哥影评人协会奖(2019)
  最佳改编剧本(提名) 塔伊加·维迪提
  最具潜力演员(提名) 罗曼·格里芬·戴维斯

  第23届美国在线影评人协会奖(2020)
  最佳影片(提名)
  最佳改编剧本(提名) 塔伊加·维迪提
Video
ID                                       : 1
Format                                   : HEVC
Format/Info                              : High Efficiency Video Coding
Codec ID                                 : V_MPEGH/ISO/HEVC
Duration                                 : 1 h 48 min
Bit rate                                 : 36.9 Mb/s
Width                                    : 3 840 pixels
Height                                   : 2 076 pixels
Display aspect ratio                     : 1.85:1
Frame rate mode                          : Constant
Frame rate                               : 23.976 (24000/1001) FPS
Color space                              : YUV
Chroma subsampling                       : 4:2:0
Bit depth                                : 10 bits
Bits/(Pixel*Frame)                       : 0.193
Stream size                              : 27.9 GiB (90%)
Title                                    : Jojo.Rabbit.2019.2160p.BluRay.x265.10bit.SDR.DTS-HD.MA.5.1-SWTYBLZ
Writing library                          : x265 3.0ed72af837053:[Windows][GCC 8.2.0][64 bit] 10bit
Encoding settings                        : cpuid=1111039 / frame-threads=6 / numa-pools=40 / wpp / no-pmode / no-pme / no-psnr / no-ssim / log-level=2 / input-csp=1 / input-res=3840x2076 / interlace=0 / total-frames=155928 / level-idc=51 / high-tier=1 / uhd-bd=0 / ref=3 / no-allow-non-conformance / repeat-headers / annexb / aud / hrd / info / hash=0 / no-temporal-layers / no-open-gop / min-keyint=1 / keyint=24 / gop-lookahead=0 / bframes=4 / b-adapt=2 / b-pyramid / bframe-bias=0 / rc-lookahead=25 / lookahead-slices=4 / scenecut=40 / radl=0 / no-splice / no-intra-refresh / ctu=64 / min-cu-size=8 / no-rect / no-amp / max-tu-size=32 / tu-inter-depth=1 / tu-intra-depth=1 / limit-tu=0 / rdoq-level=0 / dynamic-rd=0.00 / no-ssim-rd / signhide / no-tskip / nr-intra=0 / nr-inter=0 / no-constrained-intra / strong-intra-smoothing / max-merge=2 / limit-refs=3 / no-limit-modes / me=1 / subme=2 / merange=57 / temporal-mvp / weightp / no-weightb / no-analyze-src-pics / deblock=0:0 / no-sao / no-sao-non-deblock / rd=3 / no-early-skip / rskip / no-fast-intra / no-tskip-fast / no-cu-lossless / no-b-intra / no-splitrd-skip / rdpenalty=0 / psy-rd=2.00 / psy-rdoq=0.00 / no-rd-refine / no-lossless / cbqpoffs=0 / crqpoffs=0 / rc=crf / crf=16.0 / qcomp=0.60 / qpstep=4 / stats-write=0 / stats-read=0 / vbv-maxrate=160000 / vbv-bufsize=160000 / vbv-init=0.9 / crf-max=0.0 / crf-min=0.0 / ipratio=1.40 / pbratio=1.30 / aq-mode=1 / aq-strength=1.00 / cutree / zone-count=0 / no-strict-cbr / qg-size=32 / no-rc-grain / qpmax=69 / qpmin=0 / no-const-vbv / sar=1 / overscan=0 / videoformat=5 / range=0 / colorprim=2 / transfer=2 / colormatrix=2 / chromaloc=0 / display-window=0 / max-cll=0,0 / min-luma=0 / max-luma=1023 / log2-max-poc-lsb=8 / vui-timing-info / vui-hrd-info / slices=1 / opt-qp-pps / opt-ref-list-length-pps / no-multi-pass-opt-rps / scenecut-bias=0.05 / no-opt-cu-delta-qp / no-aq-motion / no-hdr / no-hdr-opt / no-dhdr10-opt / no-idr-recovery-sei / analysis-reuse-level=5 / scale-factor=0 / refine-intra=0 / refine-inter=0 / refine-mv=0 / refine-ctu-distortion=0 / no-limit-sao / ctu-info=0 / no-lowpass-dct / refine-analysis-type=0 / copy-pic=1 / max-ausize-factor=1.0 / no-dynamic-refine / no-single-sei / no-hevc-aq / qp-adaptation-range=1.00
Default                                  : Yes
Forced                                   : No

Audio #1
ID                                       : 2
Format                                   : DTS XLL
Format/Info                              : Digital Theater Systems
Commercial name                          : DTS-HD Master Audio
Codec ID                                 : A_DTS
Duration                                 : 1 h 48 min
Bit rate mode                            : Variable
Bit rate                                 : 3 341 kb/s
Channel(s)                               : 6 channels
Channel layout                           : C L R Ls Rs LFE
Sampling rate                            : 48.0 kHz
Frame rate                               : 93.750 FPS (512 SPF)
Bit depth                                : 24 bits
Compression mode                         : Lossless
Stream size                              : 2.53 GiB (8%)
Title                                    : Jojo.Rabbit.2019.2160p.BluRay.x265.10bit.SDR.DTS-HD.MA.5.1-SWTYBLZ
Language                                 : English
Default                                  : Yes
Forced                                   : No

Audio #2
ID                                       : 3
Format                                   : AC-3
Format/Info                              : Audio Coding 3
Commercial name                          : Dolby Digital
Codec ID                                 : A_AC3
Duration                                 : 1 h 48 min
Bit rate mode                            : Constant
Bit rate                                 : 640 kb/s
Channel(s)                               : 6 channels
Channel layout                           : L R C LFE Ls Rs
Sampling rate                            : 48.0 kHz
Frame rate                               : 31.250 FPS (1536 SPF)
Compression mode                         : Lossy
Stream size                              : 496 MiB (2%)
Title                                    : Jojo.Rabbit.2019.2160p.BluRay.x265.10bit.SDR.DTS-HD.MA.5.1-SWTYBLZ
Language                                 : English
Service kind                             : Complete Main
Default                                  : No
Forced                                   : No

Text #1
ID                                       : 4
Format                                   : UTF-8
Codec ID                                 : S_TEXT/UTF8
Codec ID/Info                            : UTF-8 Plain Text
Duration                                 : 1 h 45 min
Bit rate                                 : 62 b/s
Count of elements                        : 1633
Stream size                              : 48.2 KiB (0%)
Title                                    : English-SRT
Language                                 : English
Default                                  : Yes
Forced                                   : No

Text #2
ID                                       : 5
Format                                   : PGS
Muxing mode                              : zlib
Codec ID                                 : S_HDMV/PGS
Codec ID/Info                            : Picture based subtitle format used on BDs/HD-DVDs
Duration                                 : 1 h 48 min
Bit rate                                 : 40.7 kb/s
Count of elements                        : 3588
Stream size                              : 31.5 MiB (0%)
Title                                    : English-PGS
Language                                 : English
Default                                  : No
Forced                                   : No

Text #3
ID                                       : 6
Format                                   : PGS
Muxing mode                              : zlib
Codec ID                                 : S_HDMV/PGS
Codec ID/Info                            : Picture based subtitle format used on BDs/HD-DVDs
Duration                                 : 1 h 47 min
Bit rate                                 : 35.5 kb/s
Count of elements                        : 2864
Stream size                              : 27.4 MiB (0%)
Title                                    : French-PGS
Language                                 : French
Default                                  : No
Forced                                   : No

Menu
00:00:00.000                             : en:Chapter 01
00:06:04.906                             : en:Chapter 02
00:09:25.523                             : en:Chapter 03
00:13:34.522                             : en:Chapter 04
00:16:17.059                             : en:Chapter 05
00:20:09.333                             : en:Chapter 06
00:27:09.461                             : en:Chapter 07
00:31:02.861                             : en:Chapter 08
00:36:30.146                             : en:Chapter 09
00:39:45.967                             : en:Chapter 10
00:44:13.192                             : en:Chapter 11
00:49:53.782                             : en:Chapter 12
00:53:17.194                             : en:Chapter 13
00:59:35.113                             : en:Chapter 14
01:03:34.019                             : en:Chapter 15
01:08:32.483                             : en:Chapter 16
01:14:20.498                             : en:Chapter 17
01:17:36.485                             : en:Chapter 18
01:22:13.387                             : en:Chapter 19
01:26:20.675                             : en:Chapter 20
01:29:24.901                             : en:Chapter 21
01:32:28.042                             : en:Chapter 22
01:37:15.371                             : en:Chapter 23
01:41:03.015                             : en:Chapter 24



                                                                                                                                                                                                        
                                                                                                                                                                                                                                                                                                                                                                                                                                                                                                                                                                                                                                                                                                                                                                                                                                                      
5cfc8294ace9743ba5c26c68f5171c37.torrent (78.44 KB, 下载次数: 13)

回复

使用道具 举报

小黑屋|磁力链接吧 |网站地图

本网站所有资源来自网络,如无意中侵犯了您的权益,请发邮件至 [email protected],立即清除相关链接

GMT+8, 2020-2-28 10:26 , Processed in 0.123263 second(s), 23 queries .

Powered by Discuz! X3.2

© 2001-2013 Comsenz Inc.

快速回复 返回顶部 返回列表