磁力链接吧

 找回密码
 立即注册
搜索

女特工 The.Operative.2019.1080p.BluRay.x264-COALiTiON 8.74GB

[复制链接]
百度云资源 发表于 2020-2-8 19:13:34 | 显示全部楼层 |阅读模式
帖子完整标题:女特工 The.Operative.2019.1080p.BluRay.x264-COALiTiON 8.74GB




◎译  名 女特工 / Die Agentin / 双面特务(台)
◎片  名 The Operative
◎年  代 2019
◎产  地 法国 / 以色列 / 德国 / 美国
◎类  别 惊悚
◎语  言 英语 / 德语 / 波斯语 / 希伯来语 / 库尔德语 / 法语
◎上映日期 2019-02-10(柏林电影节)
◎IMDb评分  5.6/10 from 2350 users
◎片  长 116分钟
◎导  演 尤瓦尔·阿德勒 Yuval Adler
◎编  剧 尤瓦尔·阿德勒 Yuval Adler
◎主  演 黛安·克鲁格 Diane Kruger
       马丁·弗瑞曼 Martin Freeman
       卡斯·安瓦尔 Cas Anvar
       维尔纳·德恩 Werner Daehn
       李伦·勒夫 Liron Levo


◎标  签 特工 | 以色列 | 间谍 | 2019 | 美国 | 剧情 | 惊悚 | 伊朗

◎简  介  

  黛安·克鲁格、艾瑞克·巴纳加盟间谍金惊悚片[女特工](The Operative,暂译)。影片由尤瓦尔·阿德勒([伯利恒])执导,根据以色列畅销小说《英语教师》改编。故事讲述一个女性(克鲁格饰)被摩萨德招募成为间谍并潜伏到德黑兰执行任务,而她更要处理自己和上司(巴纳饰),目标人物的错乱关系。
Video
ID                                       : 1
Format                                   : AVC
Format/Info                              : Advanced Video Codec
Format settings                          : CABAC / 5 Ref Frames
Format settings, CABAC                   : Yes
Format settings, Reference frames        : 5 frames
Codec ID                                 : V_MPEG4/ISO/AVC
Duration                                 : 1 h 57 min
Bit rate                                 : 9 159 kb/s
Width                                    : 1 920 pixels
Height                                   : 808 pixels
Display aspect ratio                     : 2.40:1
Frame rate mode                          : Constant
Frame rate                               : 24.000 FPS
Color space                              : YUV
Chroma subsampling                       : 4:2:0
Bit depth                                : 8 bits
Scan type                                : Progressive
Bits/(Pixel*Frame)                       : 0.246
Stream size                              : 7.50 GiB (86%)
Writing library                          : x264 core 159 r2991 1771b55
Encoding settings                        : cabac=1 / ref=5 / deblock=1:-3:-3 / analyse=0x3:0x113 / me=umh / subme=8 / psy=1 / psy_rd=1.00:0.00 / mixed_ref=1 / me_range=16 / chroma_me=1 / trellis=1 / 8x8dct=1 / cqm=0 / deadzone=21,11 / fast_pskip=1 / chroma_qp_offset=-2 / threads=24 / lookahead_threads=4 / sliced_threads=0 / nr=0 / decimate=1 / interlaced=0 / bluray_compat=0 / constrained_intra=0 / bframes=3 / b_pyramid=2 / b_adapt=1 / b_bias=0 / direct=3 / weightb=1 / open_gop=0 / weightp=2 / keyint=250 / keyint_min=24 / scenecut=40 / intra_refresh=0 / rc_lookahead=50 / rc=2pass / mbtree=1 / bitrate=9159 / ratetol=1.0 / qcomp=0.60 / qpmin=0 / qpmax=69 / qpstep=4 / cplxblur=20.0 / qblur=0.5 / ip_ratio=1.40 / aq=1:1.00
Language                                 : English
Default                                  : Yes
Forced                                   : No

Audio
ID                                       : 2
Format                                   : DTS
Format/Info                              : Digital Theater Systems
Codec ID                                 : A_DTS
Duration                                 : 1 h 57 min
Bit rate mode                            : Constant
Bit rate                                 : 1 509 kb/s
Channel(s)                               : 6 channels
Channel layout                           : C L R Ls Rs LFE
Sampling rate                            : 48.0 kHz
Frame rate                               : 93.750 FPS (512 SPF)
Bit depth                                : 24 bits
Compression mode                         : Lossy
Stream size                              : 1.24 GiB (14%)
Language                                 : English
Default                                  : Yes
Forced                                   : No

Text
ID                                       : 3
Format                                   : UTF-8
Codec ID                                 : S_TEXT/UTF8
Codec ID/Info                            : UTF-8 Plain Text
Duration                                 : 1 h 47 min
Bit rate                                 : 3 b/s
Count of elements                        : 76
Stream size                              : 2.86 KiB (0%)
Title                                    : English Forced
Language                                 : English
Default                                  : No
Forced                                   : Yes



                                                                                                                                                                                                        
                                                                                                                                                                                                                                                                                                                                                                                                                                                                                                                                                                                                                                                                                                                                                                                                                                                      
4aa13ce563c4ad4f3575babbbf0b9d28.torrent (44.36 KB, 下载次数: 19)

回复

使用道具 举报

小黑屋|磁力链接吧 |网站地图

本网站所有资源来自网络,如无意中侵犯了您的权益,请发邮件至 [email protected],立即清除相关链接

GMT+8, 2020-2-20 08:33 , Processed in 0.063150 second(s), 23 queries .

Powered by Discuz! X3.2

© 2001-2013 Comsenz Inc.

快速回复 返回顶部 返回列表