磁力链接吧

 找回密码
 立即注册
搜索

阿比盖尔 Abigail.2019.720p.BluRay.x264-GETiT 4.37GB

[复制链接]
百度云资源 发表于 2020-2-8 18:42:58 | 显示全部楼层 |阅读模式
帖子完整标题:阿比盖尔 Abigail.2019.720p.BluRay.x264-GETiT 4.37GB




◎译  名 阿比盖尔 / Abigail / 魔域戰記(港) / 魔法禁界(台)
◎片  名 Эбигейл
◎年  代 2019
◎产  地 美国 / 俄罗斯
◎类  别 动作 / 奇幻 / 冒险
◎语  言 英语
◎上映日期 2019-08-22(俄罗斯)
◎IMDb评分  5.5/10 from 1991 users
◎片  长 100分钟
◎导  演 阿列克山大·博古斯拉夫斯基 Aleksandr Boguslavskiy
◎编  剧 阿列克山大·博古斯拉夫斯基 Aleksandr Boguslavskiy / Dmitriy Zhigalov
◎主  演 蒂娜婷·达拉齐施维利 Tinatin Dalakishvili
       埃迪·马森 Eddie Marsan
       林奈·穆罕默托夫 Rinal Mukhametov
       拉芙珊娜·库珂娃 Ravshana Kurkova
       阿尔乔姆·特卡琴科 Artyom Tkachenko
       玛尔塔·蒂莫菲娃 Marta Timofeeva
       尼基塔·塔拉索夫 Nikita Tarasov
       克塞尼垭·库捷波娃 Kseniya Kutepova
       佩塔尔·泽卡维卡 Petar Zekavica
       Gleb Bochkov
       Nikita Dyuvbanov


◎标  签 奇幻 | 俄罗斯 | 魔幻 | 魔法 | 科幻 | 2019 | 俄罗斯电影 | 动作

◎简  介  

  魔法世界再临,迎接大规模魔法战斗场面!艾碧嘉居住的城市,曾经充斥着不可思议的黑魔法,却被政府秘密封锁,艾碧嘉的父亲也因此消失无踪。长大的艾碧嘉体内的魔法力量渐渐苏醒,她是否能逃过一劫?
Video
ID                                       : 1
Format                                   : AVC
Format/Info                              : Advanced Video Codec
Format settings                          : CABAC / 5 Ref Frames
Format settings, CABAC                   : Yes
Format settings, Reference frames        : 5 frames
Codec ID                                 : V_MPEG4/ISO/AVC
Duration                                 : 1 h 50 min
Bit rate                                 : 4 494 kb/s
Width                                    : 1 280 pixels
Height                                   : 536 pixels
Display aspect ratio                     : 2.40:1
Frame rate mode                          : Constant
Frame rate                               : 24.000 FPS
Color space                              : YUV
Chroma subsampling                       : 4:2:0
Bit depth                                : 8 bits
Scan type                                : Progressive
Bits/(Pixel*Frame)                       : 0.273
Stream size                              : 3.39 GiB (78%)
Writing library                          : x264 core 158 r2988 7817004
Encoding settings                        : cabac=1 / ref=5 / deblock=1:0:0 / analyse=0x3:0x133 / me=umh / subme=7 / psy=1 / psy_rd=1.00:0.00 / mixed_ref=1 / me_range=16 / chroma_me=1 / trellis=2 / 8x8dct=1 / cqm=0 / deadzone=21,11 / fast_pskip=0 / chroma_qp_offset=-2 / threads=9 / lookahead_threads=1 / sliced_threads=0 / nr=0 / decimate=1 / interlaced=0 / bluray_compat=0 / constrained_intra=0 / bframes=3 / b_pyramid=2 / b_adapt=1 / b_bias=0 / direct=3 / weightb=1 / open_gop=0 / weightp=2 / keyint=250 / keyint_min=24 / scenecut=40 / intra_refresh=0 / rc_lookahead=50 / rc=2pass / mbtree=1 / bitrate=4494 / ratetol=1.0 / qcomp=0.60 / qpmin=0 / qpmax=69 / qpstep=4 / cplxblur=20.0 / qblur=0.5 / ip_ratio=1.40 / aq=1:1.00
Language                                 : English
Default                                  : Yes
Forced                                   : No

Audio
ID                                       : 2
Format                                   : DTS
Format/Info                              : Digital Theater Systems
Codec ID                                 : A_DTS
Duration                                 : 1 h 50 min
Bit rate mode                            : Constant
Bit rate                                 : 1 152 kb/s
Channel(s)                               : 6 channels
Channel layout                           : C L R Ls Rs LFE
Sampling rate                            : 48.0 kHz
Frame rate                               : 93.750 FPS (512 SPF)
Bit depth                                : 24 bits
Compression mode                         : Lossy
Stream size                              : 913 MiB (20%)
Title                                    : dts
Language                                 : English
Default                                  : Yes
Forced                                   : No

Menu
00:00:00.000                             : en:00:00:00.000
00:07:25.833                             : en:00:07:25.833
00:16:18.458                             : en:00:16:18.458
00:24:57.917                             : en:00:24:57.917
00:35:11.042                             : en:00:35:11.042
00:43:53.042                             : en:00:43:53.042
00:52:10.625                             : en:00:52:10.625
01:02:28.500                             : en:01:02:28.500
01:13:20.292                             : en:01:13:20.292
01:19:52.292                             : en:01:19:52.292
01:29:12.417                             : en:01:29:12.417
01:46:19.833                             : en:01:46:19.833
01:50:26.750                             : en:01:50:26.750



                                                                                                                                                                                                        
                                                                                                                                                                                                                                                                                                                                                                                                                                                                                                                                                                                                                                                                                                                                                                                                                                                      
a9b5b413d9fdfa3ad882232ac2f8c61f.torrent (44.29 KB, 下载次数: 7)

回复

使用道具 举报

小黑屋|磁力链接吧 |网站地图

本网站所有资源来自网络,如无意中侵犯了您的权益,请发邮件至 [email protected],立即清除相关链接

GMT+8, 2020-2-21 21:15 , Processed in 0.082381 second(s), 23 queries .

Powered by Discuz! X3.2

© 2001-2013 Comsenz Inc.

快速回复 返回顶部 返回列表