磁力链接吧

 找回密码
 立即注册
搜索

黑点/黑色基地 Black.Site.2018.720p.BluRay.x264-GETiT 4.37GB

[复制链接]
百度云资源 发表于 2020-2-8 18:42:58 | 显示全部楼层 |阅读模式
帖子完整标题:黑点/黑色基地 Black.Site.2018.720p.BluRay.x264-GETiT 4.37GB




◎译  名 黑点 / 黑色基地
◎片  名 Black Site
◎年  代 2018
◎产  地 美国
◎类  别 动作 / 恐怖
◎语  言 英语
◎IMDb评分  3.9/10 from 332 users
◎导  演 Tom Paton
◎编  剧 Tom Paton
◎主  演 Jessica-Jane Stafford
       劳伦·阿什利·卡特 Lauren Ashley Carter
       Sophia Del Pizzo


◎标  签 美国

◎简  介  

  80's inspired John Carpenteresque Action. A young woman is forced to push past her worst fears and battle to deport an ancient entity back to where it came from. Set inside an underground military base known as The Artemis Black Site, the movie mixes an Escape From New York style survival story with Lovecraftian elements and large scale mythology building.
Video
ID                                       : 1
Format                                   : AVC
Format/Info                              : Advanced Video Codec
Format settings                          : CABAC / 5 Ref Frames
Format settings, CABAC                   : Yes
Format settings, Reference frames        : 5 frames
Codec ID                                 : V_MPEG4/ISO/AVC
Duration                                 : 1 h 27 min
Bit rate                                 : 6 370 kb/s
Width                                    : 1 280 pixels
Height                                   : 544 pixels
Display aspect ratio                     : 2.35:1
Frame rate mode                          : Constant
Frame rate                               : 23.976 (24000/1001) FPS
Color space                              : YUV
Chroma subsampling                       : 4:2:0
Bit depth                                : 8 bits
Scan type                                : Progressive
Bits/(Pixel*Frame)                       : 0.382
Stream size                              : 3.81 GiB (87%)
Writing library                          : x264 core 158 r2988 7817004
Encoding settings                        : cabac=1 / ref=5 / deblock=1:-2:-2 / analyse=0x3:0x113 / me=umh / subme=8 / psy=1 / psy_rd=1.00:0.00 / mixed_ref=1 / me_range=16 / chroma_me=1 / trellis=2 / 8x8dct=1 / cqm=0 / deadzone=21,11 / fast_pskip=0 / chroma_qp_offset=-2 / threads=17 / lookahead_threads=2 / sliced_threads=0 / nr=0 / decimate=1 / interlaced=0 / bluray_compat=0 / constrained_intra=0 / bframes=3 / b_pyramid=2 / b_adapt=2 / b_bias=0 / direct=3 / weightb=1 / open_gop=0 / weightp=2 / keyint=240 / keyint_min=24 / scenecut=40 / intra_refresh=0 / rc_lookahead=50 / rc=2pass / mbtree=1 / bitrate=6370 / ratetol=1.0 / qcomp=0.60 / qpmin=0 / qpmax=69 / qpstep=4 / cplxblur=20.0 / qblur=0.5 / ip_ratio=1.40 / aq=1:1.00
Language                                 : English
Default                                  : Yes
Forced                                   : No

Audio
ID                                       : 2
Format                                   : DTS
Format/Info                              : Digital Theater Systems
Codec ID                                 : A_DTS
Duration                                 : 1 h 27 min
Bit rate mode                            : Constant
Bit rate                                 : 768 kb/s
Channel(s)                               : 6 channels
Channel layout                           : C L R Ls Rs LFE
Sampling rate                            : 48.0 kHz
Frame rate                               : 93.750 FPS (512 SPF)
Bit depth                                : 24 bits
Compression mode                         : Lossy
Stream size                              : 481 MiB (11%)
Language                                 : English
Default                                  : Yes
Forced                                   : No

Menu
00:00:00.000                             : en:00:00:00.000
00:04:30.812                             : en:00:04:30.812
00:13:41.529                             : en:00:13:41.529
00:19:09.315                             : en:00:19:09.315
00:24:46.777                             : en:00:24:46.777
00:30:54.436                             : en:00:30:54.436
00:35:54.194                             : en:00:35:54.194
00:43:50.086                             : en:00:43:50.086
00:55:43.131                             : en:00:55:43.131
01:05:31.678                             : en:01:05:31.678
01:14:56.242                             : en:01:14:56.242
01:22:08.340                             : en:01:22:08.340



                                                                                                                                                                                                        
                                                                                                                                                                                                                                                                                                                                                                                                                                                                                                                                                                                                                                                                                                                                                                                                                                                      
8e7d06aad343b32baf95e600b1d362bd.torrent (44.37 KB, 下载次数: 17)

回复

使用道具 举报

小黑屋|磁力链接吧 |网站地图

本网站所有资源来自网络,如无意中侵犯了您的权益,请发邮件至 [email protected],立即清除相关链接

GMT+8, 2020-2-21 22:40 , Processed in 0.105248 second(s), 23 queries .

Powered by Discuz! X3.2

© 2001-2013 Comsenz Inc.

快速回复 返回顶部 返回列表