磁力链接吧

 找回密码
 立即注册
搜索

温德米尔儿童 The.Windermere.Children.2020.720p.BluRay.x264-SPOOKS 4.37GB

[复制链接]
百度云资源 发表于 2020-2-8 18:42:58 | 显示全部楼层 |阅读模式
帖子完整标题:温德米尔儿童 The.Windermere.Children.2020.720p.BluRay.x264-SPOOKS 4.37GB




◎译  名 温德米尔儿童 / The Children
◎片  名 The Windermere Children
◎年  代 2020
◎产  地 英国
◎类  别 剧情 / 战争
◎语  言 英语
◎上映日期 2020-01-26(英国) / 2020-01-27(德国)
◎IMDb评分  7.3/10 from 406 users
◎片  长 88分钟
◎导  演 迈克尔·塞缪尔斯 Michael Samuels
◎编  剧 Simon Block
◎主  演 伊恩·格雷 Iain Glen
       萝玛拉·嘉瑞 Romola Garai
       托马斯·克莱舒曼 Thomas Kretschmann
       蒂姆·麦克纳尼 Tim McInnerny
       菲利普·克里斯托弗 Philipp Christopher
       Kuba Sprenger
       安娜·舒马赫 Anna Schumacher
       马塞尔·萨巴特 Marcel Sabat
       B.J. Hogg
       Tara Cush
       Pascal Fischer
       Konstantin Frank
       Jakub Jankiewicz
       Kacper Swietek
       Tomasz Studzinski


◎标  签 英国 | 二战孤儿 | 2020 | 欧洲电影 | 战争 | ThomasKretschmann | RomolaGarai | MichaelSamuels

◎简  介  

  第二次世界大战后在英国被安置和重建的大屠杀儿童的悲惨故事,并最终使人得以肯定。它始于新大陆的不确定性和恐惧,但最终导致了所有人都珍惜的希望和善意以及终生的友谊和幸福。
Video
ID                                       : 1
Format                                   : AVC
Format/Info                              : Advanced Video Codec
Format settings                          : CABAC / 10 Ref Frames
Format settings, CABAC                   : Yes
Format settings, Reference frames        : 10 frames
Codec ID                                 : V_MPEG4/ISO/AVC
Duration                                 : 1 h 28 min
Bit rate                                 : 5 951 kb/s
Width                                    : 1 280 pixels
Height                                   : 640 pixels
Display aspect ratio                     : 2.000
Frame rate mode                          : Constant
Frame rate                               : 25.000 FPS
Color space                              : YUV
Chroma subsampling                       : 4:2:0
Bit depth                                : 8 bits
Scan type                                : Progressive
Bits/(Pixel*Frame)                       : 0.291
Stream size                              : 3.67 GiB (84%)
Writing library                          : x264 core 159 r2991 1771b55
Encoding settings                        : cabac=1 / ref=10 / deblock=1:-3:-3 / analyse=0x3:0x133 / me=umh / subme=9 / psy=1 / psy_rd=1.00:0.00 / mixed_ref=1 / me_range=24 / chroma_me=1 / trellis=1 / 8x8dct=1 / cqm=0 / deadzone=21,11 / fast_pskip=0 / chroma_qp_offset=-2 / threads=20 / lookahead_threads=3 / sliced_threads=0 / nr=0 / decimate=1 / interlaced=0 / bluray_compat=0 / constrained_intra=0 / bframes=8 / b_pyramid=2 / b_adapt=2 / b_bias=0 / direct=3 / weightb=1 / open_gop=0 / weightp=2 / keyint=250 / keyint_min=25 / scenecut=40 / intra_refresh=0 / rc_lookahead=60 / rc=2pass / mbtree=1 / bitrate=5951 / ratetol=1.0 / qcomp=0.60 / qpmin=0 / qpmax=69 / qpstep=4 / cplxblur=20.0 / qblur=0.5 / vbv_maxrate=62500 / vbv_bufsize=78125 / nal_hrd=none / filler=0 / ip_ratio=1.40 / aq=1:1.00
Default                                  : Yes
Forced                                   : No

Audio
ID                                       : 2
Format                                   : FLAC
Format/Info                              : Free Lossless Audio Codec
Codec ID                                 : A_FLAC
Duration                                 : 1 h 28 min
Bit rate mode                            : Variable
Bit rate                                 : 1 142 kb/s
Channel(s)                               : 2 channels
Channel layout                           : L R
Sampling rate                            : 48.0 kHz
Frame rate                               : 10.417 FPS (4608 SPF)
Bit depth                                : 24 bits
Compression mode                         : Lossless
Stream size                              : 721 MiB (16%)
Writing library                          : Lavf58.29.100
Language                                 : English
Default                                  : Yes
Forced                                   : No

Menu
00:00:00.000                             : en:Chapter 01
00:08:22.520                             : en:Chapter 02
00:15:47.360                             : en:Chapter 03
00:23:44.720                             : en:Chapter 04
00:32:31.440                             : en:Chapter 05
00:40:56.680                             : en:Chapter 06
00:46:53.680                             : en:Chapter 07
00:55:14.840                             : en:Chapter 08
01:03:39.680                             : en:Chapter 09
01:12:26.840                             : en:Chapter 10
01:20:45.400                             : en:Chapter 11
01:27:20.360                             : en:Chapter 12



                                                                                                                                                                                                        
                                                                                                                                                                                                                                                                                                                                                                                                                                                                                                                                                                                                                                                                                                                                                                                                                                                      
94e2d068b273763d1b97860fd2e8b9cd.torrent (44.66 KB, 下载次数: 3)

回复

使用道具 举报

小黑屋|磁力链接吧 |网站地图

本网站所有资源来自网络,如无意中侵犯了您的权益,请发邮件至 [email protected],立即清除相关链接

GMT+8, 2020-2-21 21:24 , Processed in 0.178810 second(s), 23 queries .

Powered by Discuz! X3.2

© 2001-2013 Comsenz Inc.

快速回复 返回顶部 返回列表