磁力链接吧

 找回密码
 立即注册
搜索

极速车王 Ford.v.Ferrari.2019.1080p.BluRay.x264.TrueHD.7.1.Atmos-SWTYBLZ 2...

[复制链接]
百度云资源 发表于 2020-2-7 18:54:42 | 显示全部楼层 |阅读模式
帖子完整标题:极速车王 Ford.v.Ferrari.2019.1080p.BluRay.x264.TrueHD.7.1.Atmos-SWTYBLZ 21.56GB




◎译  名 极速车王 / Go Like Hell / Kings of the Road / Le Mans '66 / 地狱驾驶 / 极速之王 / 极速传奇:褔特决战法拉利(港) / 福特大战法拉利 / 赛道狂人(台)
◎片  名 Ford v Ferrari
◎年  代 2019
◎产  地 美国 / 法国
◎类  别 剧情 / 传记 / 运动
◎语  言 英语 / 意大利语 / 法语 / 日语
◎上映日期 2019-08-30(特柳赖德电影节) / 2019-11-15(美国)
◎IMDb评分  8.2/10 from 99717 users
◎片  长 152分钟
◎导  演 詹姆斯·曼高德 James Mangold
◎编  剧 詹姆斯·曼高德 James Mangold / 杰斯·巴特沃斯 Jez Butterworth / 约翰-亨利·巴特沃斯 John-Henry Butterworth / 贾森·凯勒 Jason Keller / A·J·拜梅 A.J. Baime
◎主  演 马特·达蒙 Matt Damon
       克里斯蒂安·贝尔 Christian Bale
       乔·博恩瑟 Jon Bernthal
       诺亚·尤佩 Noah Jupe
       玛丽萨·佩特罗 Marisa Petroro
       凯特瑞娜·巴尔夫 Caitriona Balfe
       乔什·卢卡斯 Josh Lucas
       雷·迈克金农 Ray McKinnon
       约翰·约瑟夫·菲尔德 JJ Feild
       崔西·莱茨 Tracy Letts
       华莱士·朗翰 Wallace Langham
       乔纳森·拉帕格里拉 Jonathan LaPaglia
       斯特凡 Stefania Spampinato
       鲁道夫·马丁 Rudolf Martin
       拉奇兰·布坎南 Lachlan Buchanan
       瓦德·霍尔顿 Ward Horton
       肖恩·卡里甘 Sean Carrigan
       克里斯托弗·达尔加 Christopher Darga
       亚当·梅菲尔德 Adam Mayfield
       乔瓦尼索罗菲瓦 Giovanni Cirfiera
       乔·威廉森 Joe Williamson
       本杰明·里格比 Benjamin Rigby
       杰克·麦克马伦 Jack McMullen
       保罗·福克斯 Paul Fox
       雷莫·吉罗内 Remo Girone
       德鲁·劳施 Drew Rausch
       朱利安·米勒 Julian Miller
       艾拉姆·奥里安 Aylam Orian
       埃姆利·贝赫什蒂 Emil Beheshti
       蒂芙妮·伊冯娜·考克斯 Tiffany Yvonne Cox
       达林·库珀 Darin Cooper
       科拉多·因韦尔尼齐 Corrado Invernizzi
       特洛伊·迪林格 Troy Dillinger
       彼得·阿佩塞拉 Peter Arpesella
       斯凯勒·马歇尔 Skyler Marshall


◎标  签 赛车 | 传记 | 美国 | 真实事件改编 | 2019 | 剧情 | 运动 | 动作

◎简  介  

  基于真实故事,聚焦由汽车设计师卡罗尔·谢尔比带领的一队美国工程师、设计师,以及他旗下的英国车手肯·迈尔斯,亨利·福特二世要求谢尔比打造一辆全新的赛车,希望能在1966年的勒芒世界锦标赛上打败长期占主导地位的法拉利。最终福特GT40在勒芒24小时耐力赛中成功击败法拉利,并蝉联了1967和1968年的冠军。

◎获奖情况  

  第92届奥斯卡金像奖(2020)
  最佳影片(提名)
  最佳剪辑(提名) 迈克尔·麦卡斯克 / 安德鲁·巴克兰
  最佳混音(提名) David Giammarco / 史蒂文·莫罗 / 保罗·马瑟
  最佳音效剪辑(提名)

  第77届金球奖(2020)
  电影类 剧情片最佳男主角(提名) 克里斯蒂安·贝尔

  第73届英国电影学院奖(2020)
  电影奖 最佳摄影(提名) 芬顿·帕帕迈可
  电影奖 最佳剪辑(提名) 迈克尔·麦卡斯克 / 安德鲁·巴克兰
  电影奖 最佳音效(提名)

  第26届美国演员工会奖(2020)
  电影奖 最佳男主角(提名) 克里斯蒂安·贝尔
  电影最佳特技群戏(提名)

  第31届美国制片人工会奖(2020)
  最佳电影制片人奖(提名)

  第34届美国摄影协会奖(2020)
  电影长片最佳摄影(提名) 芬顿·帕帕迈可

  第70届美国剪辑工会奖(2020)
  剧情片最佳剪辑(提名) 迈克尔·麦卡斯克 / 安德鲁·巴克兰

  第24届美国艺术指导工会奖(2020)
  电影奖 最佳历史电影艺术指导(提名) 弗朗索瓦·奥杜伊

  第67届美国音效剪辑协会奖(2020)
  金卷轴奖 最佳电影音效剪辑
  金卷轴奖 最佳电影对白剪辑(提名)

  第18届美国视觉效果协会奖(2020)
  最佳电影辅助视觉效果(提名)

  第56届美国声音效果协会奖(2020)
  真人电影最佳音效

  第91届美国国家评论协会奖(2019)
  年度佳片

  第25届美国评论家选择电影奖(2020)
  最佳影片(提名)
  最佳动作片(提名)
  最佳摄影(提名)
  最佳剪辑(提名)
  最佳视觉效果(提名)

  第24届金卫星奖(2020)
  电影部门 最佳剧情片(提名)
  电影部门 最佳导演 詹姆斯·曼高德
  电影部门 剧情片最佳男主角 克里斯蒂安·贝尔
  电影部门 最佳原创剧本(提名) 杰斯·巴特沃斯 / 约翰-亨利·巴特沃斯 / 贾森·凯勒
  电影部门 最佳原创配乐(提名)
  电影部门 最佳摄影(提名)
  电影部门 最佳视觉效果(提名)
  电影部门 最佳剪辑
  电影部门 最佳音效
  电影部门 最佳美术指导(提名)

  第23届好莱坞电影奖(2019)
  年度导演 詹姆斯·曼高德
  年度剪辑 迈克尔·麦卡斯克 / 安德鲁·巴克兰
  年度音效 David Giammarco / Donald Sylvester / 史蒂文·莫罗 / 保罗·马瑟

  第18届华盛顿影评人协会奖(2019)
  最佳剪辑

  第40届伦敦影评人协会奖(2020)
  年度英国/爱尔兰小演员(提名) 诺亚·尤佩

  第23届美国在线影评人协会奖(2020)
  最佳剪辑(提名) 迈克尔·麦卡斯克 / 安德鲁·巴克兰
Video
ID                                       : 1
Format                                   : AVC
Format/Info                              : Advanced Video Codec
Format settings                          : CABAC / 5 Ref Frames
Format settings, CABAC                   : Yes
Format settings, Reference frames        : 5 frames
Codec ID                                 : V_MPEG4/ISO/AVC
Duration                                 : 2 h 32 min
Bit rate                                 : 14.9 Mb/s
Width                                    : 1 920 pixels
Height                                   : 804 pixels
Display aspect ratio                     : 2.40:1
Frame rate mode                          : Constant
Frame rate                               : 23.976 (24000/1001) FPS
Color space                              : YUV
Chroma subsampling                       : 4:2:0
Bit depth                                : 8 bits
Scan type                                : Progressive
Bits/(Pixel*Frame)                       : 0.401
Stream size                              : 15.8 GiB (73%)
Title                                    : Ford.v.Ferrari.2019.1080p.BluRay.x264.TrueHD.7.1.Atmos-SWTYBLZ
Writing library                          : x264 core 157 r2935 545de2f
Encoding settings                        : cabac=1 / ref=5 / deblock=1:-1:-1 / analyse=0x3:0x133 / me=umh / subme=10 / psy=1 / psy_rd=1.00:0.15 / mixed_ref=1 / me_range=48 / chroma_me=1 / trellis=2 / 8x8dct=1 / cqm=0 / deadzone=21,11 / fast_pskip=1 / chroma_qp_offset=-3 / threads=25 / lookahead_threads=4 / sliced_threads=0 / nr=0 / decimate=0 / interlaced=0 / bluray_compat=0 / constrained_intra=0 / bframes=8 / b_pyramid=2 / b_adapt=2 / b_bias=0 / direct=3 / weightb=1 / open_gop=0 / weightp=2 / keyint=250 / keyint_min=23 / scenecut=40 / intra_refresh=0 / rc_lookahead=60 / rc=crf / mbtree=1 / crf=15.0 / qcomp=0.60 / qpmin=0 / qpmax=69 / qpstep=4 / ip_ratio=1.40 / aq=1:1.00
Default                                  : Yes
Forced                                   : No

Audio #1
ID                                       : 2
Format                                   : MLP FBA 16-ch
Format/Info                              : Meridian Lossless Packing FBA with 16-channel presentation
Commercial name                          : Dolby TrueHD with Dolby Atmos
Codec ID                                 : A_TRUEHD
Duration                                 : 2 h 32 min
Bit rate mode                            : Variable
Bit rate                                 : 4 561 kb/s
Maximum bit rate                         : 9 933 kb/s
Channel(s)                               : 8 channels
Channel layout                           : L R C LFE Ls Rs Lb Rb
Sampling rate                            : 48.0 kHz
Frame rate                               : 1 200.000 FPS (40 SPF)
Compression mode                         : Lossless
Stream size                              : 4.86 GiB (23%)
Title                                    : Ford.v.Ferrari.2019.1080p.BluRay.x264.TrueHD.7.1.Atmos-SWTYBLZ
Language                                 : English
Default                                  : Yes
Forced                                   : No
Number of dynamic objects                : 13
Bed channel count                        : 1 channel
Bed channel configuration                : LFE

Audio #2
ID                                       : 3
Format                                   : AC-3
Format/Info                              : Audio Coding 3
Commercial name                          : Dolby Digital
Codec ID                                 : A_AC3
Duration                                 : 2 h 32 min
Bit rate mode                            : Constant
Bit rate                                 : 640 kb/s
Channel(s)                               : 6 channels
Channel layout                           : L R C LFE Ls Rs
Sampling rate                            : 48.0 kHz
Frame rate                               : 31.250 FPS (1536 SPF)
Bit depth                                : 16 bits
Compression mode                         : Lossy
Stream size                              : 699 MiB (3%)
Title                                    : Ford.v.Ferrari.2019.1080p.BluRay.x264.TrueHD.7.1.Atmos-SWTYBLZ
Language                                 : English
Service kind                             : Complete Main
Default                                  : No
Forced                                   : No

Text #1
ID                                       : 4
Format                                   : UTF-8
Codec ID                                 : S_TEXT/UTF8
Codec ID/Info                            : UTF-8 Plain Text
Duration                                 : 1 h 24 min
Bit rate                                 : 0 b/s
Count of elements                        : 9
Stream size                              : 304 Bytes (0%)
Title                                    : English-FORCED-SRT
Language                                 : English
Default                                  : Yes
Forced                                   : Yes

Text #2
ID                                       : 5
Format                                   : UTF-8
Codec ID                                 : S_TEXT/UTF8
Codec ID/Info                            : UTF-8 Plain Text
Duration                                 : 2 h 32 min
Bit rate                                 : 66 b/s
Count of elements                        : 2498
Stream size                              : 74.0 KiB (0%)
Title                                    : English-SRT
Language                                 : English
Default                                  : No
Forced                                   : No

Text #3
ID                                       : 6
Format                                   : PGS
Muxing mode                              : zlib
Codec ID                                 : S_HDMV/PGS
Codec ID/Info                            : Picture based subtitle format used on BDs/HD-DVDs
Duration                                 : 1 h 24 min
Bit rate                                 : 158 b/s
Count of elements                        : 18
Stream size                              : 97.7 KiB (0%)
Title                                    : English-FORCED-PGS
Language                                 : English
Default                                  : No
Forced                                   : No

Text #4
ID                                       : 7
Format                                   : PGS
Muxing mode                              : zlib
Codec ID                                 : S_HDMV/PGS
Codec ID/Info                            : Picture based subtitle format used on BDs/HD-DVDs
Duration                                 : 2 h 32 min
Bit rate                                 : 49.8 kb/s
Count of elements                        : 4996
Stream size                              : 54.3 MiB (0%)
Title                                    : English-PGS
Language                                 : English
Default                                  : No
Forced                                   : No

Text #5
ID                                       : 8
Format                                   : PGS
Muxing mode                              : zlib
Codec ID                                 : S_HDMV/PGS
Codec ID/Info                            : Picture based subtitle format used on BDs/HD-DVDs
Duration                                 : 2 h 31 min
Bit rate                                 : 20.6 kb/s
Count of elements                        : 4136
Stream size                              : 22.4 MiB (0%)
Title                                    : Chinese-PGS
Language                                 : Chinese
Default                                  : No
Forced                                   : No

Text #6
ID                                       : 9
Format                                   : PGS
Muxing mode                              : zlib
Codec ID                                 : S_HDMV/PGS
Codec ID/Info                            : Picture based subtitle format used on BDs/HD-DVDs
Duration                                 : 2 h 31 min
Bit rate                                 : 28.3 kb/s
Count of elements                        : 4158
Stream size                              : 30.6 MiB (0%)
Title                                    : Chinese-PGS
Language                                 : Chinese
Default                                  : No
Forced                                   : No

Text #7
ID                                       : 10
Format                                   : PGS
Muxing mode                              : zlib
Codec ID                                 : S_HDMV/PGS
Codec ID/Info                            : Picture based subtitle format used on BDs/HD-DVDs
Duration                                 : 2 h 31 min
Bit rate                                 : 34.2 kb/s
Count of elements                        : 4130
Stream size                              : 37.0 MiB (0%)
Title                                    : French-PGS
Language                                 : French
Default                                  : No
Forced                                   : No

Text #8
ID                                       : 11
Format                                   : PGS
Muxing mode                              : zlib
Codec ID                                 : S_HDMV/PGS
Codec ID/Info                            : Picture based subtitle format used on BDs/HD-DVDs
Duration                                 : 2 h 31 min
Bit rate                                 : 22.4 kb/s
Count of elements                        : 4054
Stream size                              : 24.2 MiB (0%)
Title                                    : Japanese-PGS
Language                                 : Japanese
Default                                  : No
Forced                                   : No

Text #9
ID                                       : 12
Format                                   : PGS
Muxing mode                              : zlib
Codec ID                                 : S_HDMV/PGS
Codec ID/Info                            : Picture based subtitle format used on BDs/HD-DVDs
Duration                                 : 2 h 31 min
Bit rate                                 : 26.5 kb/s
Count of elements                        : 4108
Stream size                              : 28.8 MiB (0%)
Title                                    : Korean-PGS
Language                                 : Korean
Default                                  : No
Forced                                   : No

Text #10
ID                                       : 13
Format                                   : PGS
Muxing mode                              : zlib
Codec ID                                 : S_HDMV/PGS
Codec ID/Info                            : Picture based subtitle format used on BDs/HD-DVDs
Duration                                 : 2 h 31 min
Bit rate                                 : 33.2 kb/s
Count of elements                        : 3910
Stream size                              : 36.0 MiB (0%)
Title                                    : Spanish-PGS
Language                                 : Spanish
Default                                  : No
Forced                                   : No

Menu
00:00:00.000                             : en:Chapter 01
00:04:45.285                             : en:Chapter 02
00:07:32.202                             : en:Chapter 03
00:10:02.477                             : en:Chapter 04
00:15:38.980                             : en:Chapter 05
00:20:14.839                             : en:Chapter 06
00:21:39.465                             : en:Chapter 07
00:26:00.559                             : en:Chapter 08
00:31:57.541                             : en:Chapter 09
00:34:09.422                             : en:Chapter 10
00:39:12.934                             : en:Chapter 11
00:42:06.566                             : en:Chapter 12
00:45:56.671                             : en:Chapter 13
00:48:38.332                             : en:Chapter 14
00:51:21.745                             : en:Chapter 15
00:55:03.342                             : en:Chapter 16
00:57:50.467                             : en:Chapter 17
01:00:26.706                             : en:Chapter 18
01:06:33.156                             : en:Chapter 19
01:11:59.482                             : en:Chapter 20
01:16:13.444                             : en:Chapter 21
01:19:30.182                             : en:Chapter 22
01:24:18.428                             : en:Chapter 23
01:29:24.651                             : en:Chapter 24
01:33:15.840                             : en:Chapter 25
01:38:10.968                             : en:Chapter 26
01:40:57.134                             : en:Chapter 27
01:43:22.988                             : en:Chapter 28
01:45:48.884                             : en:Chapter 29
01:50:38.632                             : en:Chapter 30
01:53:38.020                             : en:Chapter 31
01:57:47.269                             : en:Chapter 32
02:00:16.334                             : en:Chapter 33
02:05:22.557                             : en:Chapter 34
02:09:18.042                             : en:Chapter 35
02:12:01.163                             : en:Chapter 36
02:15:26.076                             : en:Chapter 37
02:18:22.794                             : en:Chapter 38
02:20:46.104                             : en:Chapter 39
02:26:27.278                             : en:Chapter 40



                                                                                                                                                                                                        
                                                                                                                                                                                                                                                                                                                                                                                                                                                                                                                                                                                                                                                                                                                                                                                                                                                      
57042c5ecf3b2cd7e855ce0b1cd87eee.torrent (54.45 KB, 下载次数: 39)

回复

使用道具 举报

小黑屋|磁力链接吧 |网站地图

本网站所有资源来自网络,如无意中侵犯了您的权益,请发邮件至 [email protected],立即清除相关链接

GMT+8, 2020-10-1 00:40 , Processed in 0.140095 second(s), 23 queries .

Powered by Discuz! X3.2

© 2001-2013 Comsenz Inc.

快速回复 返回顶部 返回列表