磁力链接吧

 找回密码
 立即注册
搜索

渔枪 Harpoon.2019.1080p.BluRay.x264-CADAVER 6.56GB

[复制链接]
百度云资源 发表于 2020-2-7 18:54:42 | 显示全部楼层 |阅读模式
子完整标题:渔枪 Harpoon.2019.1080p.BluRay.x264-CADAVER 6.56GB




◎译  名 渔枪 / A Boat Movie
◎片  名 Harpoon
◎年  代 2019
◎产  地 加拿大
◎类  别 喜剧 / 恐怖
◎语  言 英语
◎上映日期 2019-01-24(鹿特丹国际电影节)
◎IMDb评分  6.1/10 from 1596 users
◎导  演 Rob Grant
◎编  剧 Rob Grant
◎主  演 门罗·钱伯斯 Munro Chambers
       艾米莉·泰拉 Emily Tyra
       Christopher Gray
       布伦特·吉尔曼 Brett Gelman


◎标  签 黑色喜剧 | 血腥 | 暴力 | 悬疑 | 三星 | Horror&Thriller | Comedy | Canada

◎简  介  

  When his girlfriend Sasha and best friend Elias give hothead Richard a harpoon for his birthday, he wants to try this new toy out right away. So the three of them set out for a day trip on a boat, but suspicion and jealousy soon start to get the upper hand. Before long, the tension has become unbearable. To make matters worse, the boat’s engine fails and then it turns out they left their supplies on shore: a nerve-wracking struggle for survival ensues that spares no one’s secrets – or blood.
  This post-modern adaptation of a story by Edgar Allan Poe in which three shipwrecked sailors draw lots to see who has to sacrifice himself as a cannibalistic snack, is a bloodthirsty thriller that leaves sufficient space for laughs. It’s painfully obvious from (nautical) miles away that this triangular relationship is not going to end well.
Video
ID                                       : 1
Format                                   : AVC
Format/Info                              : Advanced Video Codec
Format settings                          : CABAC / 4 Ref Frames
Format settings, CABAC                   : Yes
Format settings, Reference frames        : 4 frames
Codec ID                                 : V_MPEG4/ISO/AVC
Duration                                 : 1 h 22 min
Bit rate                                 : 9 848 kb/s
Width                                    : 1 920 pixels
Height                                   : 1 080 pixels
Display aspect ratio                     : 16:9
Frame rate mode                          : Constant
Frame rate                               : 23.976 (24000/1001) FPS
Color space                              : YUV
Chroma subsampling                       : 4:2:0
Bit depth                                : 8 bits
Scan type                                : Progressive
Bits/(Pixel*Frame)                       : 0.198
Stream size                              : 5.68 GiB (87%)
Writing library                          : x264 core 159 r2991 1771b55
Encoding settings                        : cabac=1 / ref=4 / deblock=1:-3:-3 / analyse=0x3:0x133 / me=umh / subme=9 / psy=1 / psy_rd=1.00:0.00 / mixed_ref=1 / me_range=24 / chroma_me=1 / trellis=1 / 8x8dct=1 / cqm=0 / deadzone=21,11 / fast_pskip=0 / chroma_qp_offset=-2 / threads=6 / lookahead_threads=1 / sliced_threads=0 / nr=0 / decimate=1 / interlaced=0 / bluray_compat=0 / constrained_intra=0 / bframes=8 / b_pyramid=2 / b_adapt=2 / b_bias=0 / direct=3 / weightb=1 / open_gop=0 / weightp=2 / keyint=250 / keyint_min=23 / scenecut=40 / intra_refresh=0 / rc_lookahead=60 / rc=2pass / mbtree=1 / bitrate=9848 / ratetol=1.0 / qcomp=0.60 / qpmin=0 / qpmax=69 / qpstep=4 / cplxblur=20.0 / qblur=0.5 / vbv_maxrate=62500 / vbv_bufsize=78125 / nal_hrd=none / filler=0 / ip_ratio=1.40 / aq=1:1.00
Default                                  : Yes
Forced                                   : No

Audio
ID                                       : 2
Format                                   : DTS
Format/Info                              : Digital Theater Systems
Codec ID                                 : A_DTS
Duration                                 : 1 h 22 min
Bit rate mode                            : Constant
Bit rate                                 : 1 509 kb/s
Channel(s)                               : 6 channels
Channel layout                           : C L R Ls Rs LFE
Sampling rate                            : 48.0 kHz
Frame rate                               : 93.750 FPS (512 SPF)
Bit depth                                : 24 bits
Compression mode                         : Lossy
Stream size                              : 892 MiB (13%)
Language                                 : English
Default                                  : Yes
Forced                                   : No

Menu
00:00:00.000                             : en:Chapter 01
00:07:29.491                             : en:Chapter 02
00:11:41.492                             : en:Chapter 03
00:22:11.163                             : en:Chapter 04
00:29:24.805                             : en:Chapter 05
00:35:49.356                             : en:Chapter 06
00:42:18.911                             : en:Chapter 07
00:47:36.312                             : en:Chapter 08
00:56:48.155                             : en:Chapter 09
01:03:57.751                             : en:Chapter 10
01:10:51.038                             : en:Chapter 11
01:15:23.602                             : en:Chapter 12



                                                                                                                                                                                                        
                                                                                                                                                                                                                                                                                                                                                                                                                                                                                                                                                                                                                                                                                                                                                                                                                                                      
960b0d34aae09005cf9fb8fb7f8d4828.torrent (33.66 KB, 下载次数: 10)

回复

使用道具 举报

小黑屋|磁力链接吧 |网站地图

本网站所有资源来自网络,如无意中侵犯了您的权益,请发邮件至 [email protected],立即清除相关链接

GMT+8, 2020-2-20 07:33 , Processed in 0.077499 second(s), 23 queries .

Powered by Discuz! X3.2

© 2001-2013 Comsenz Inc.

快速回复 返回顶部 返回列表