磁力链接吧

 找回密码
 立即注册
搜索

绿茵场外/绿草如阴 Greener.Grass.2019.LIMITED.1080p.BluRay.x264-GECKOS...

[复制链接]
百度云资源 发表于 2020-2-7 18:54:42 | 显示全部楼层 |阅读模式
帖子完整标题:绿茵场外/绿草如阴 Greener.Grass.2019.LIMITED.1080p.BluRay.x264-GECKOS 7.66GB




◎译  名 绿茵场外 / 绿草如阴(台)
◎片  名 Greener Grass
◎年  代 2019
◎产  地 美国
◎类  别 喜剧
◎语  言 英语
◎上映日期 2019-01-26(圣丹斯电影节)
◎IMDb评分  6.4/10 from 1411 users
◎片  长 99分钟(圣丹斯电影节)
◎导  演 乔斯琳·德波尔 Jocelyn DeBoer / 多恩·路比 Dawn Luebbe
◎编  剧 乔斯琳·德波尔 Jocelyn DeBoer / 多恩·路比 Dawn Luebbe
◎主  演 乔斯琳·德波尔 Jocelyn DeBoer
       多恩·路比 Dawn Luebbe
       贝克·班尼特 Beck Bennett
       尼尔·凯西 Neil Casey
       玛丽·霍兰 Mary Holland
       达茜·卡尔登 D'Arcy Carden
       朱利安·希威德 Julian Hilliard
       加妮克扎·布拉沃 Janicza Bravo
       多特-玛丽·琼斯 Dot-Marie Jones
       阿瑟·迈尔斯·法里卡 Asher Miles Fallica
       约翰·米海瑟 John Milhiser
       吉姆·卡明斯 Jim Cummings
       艾米·莱昂纳兹 Ammie Leonards
       萨顿·约翰斯顿 Sutton Johnston
       布登·约翰斯顿 Boden Johnston
       约翰·施密德 John Schmedes
       Lauren Adams
       Santina Muha
       Mike Scollins
       Josh Ruben


◎标  签 美国 | 2019 | 喜剧 | 美国电影 | 2010s | 金馬影展_2019 | 美國 | SIFF2019

◎简  介  

  這是一個沒有暴力、溫馨的地方,衣著光鮮的男女老少全都戴著牙套,公園的足球草場上,每張臉孔都是百分百微笑;豪宅的庭園派對裡,每句話語都是百分百得體。在這個富而好禮的小社會裡,所有人都那麼和善,所有事都那麼完美,也難怪吉兒不會知道,隨手將自己可愛的孩子送給閨蜜,將為她帶來多麼意想不到的後果……。
  美國資深即興喜劇雙姝聯手把嘲諷開到「癲」峰,自編自導自演超激版《慾望師奶》,打造出一座豔彩斑斕的保守主義異托邦,狂噴城郊上流社區一切矯枉過正的文明怪病。碎嘴鄰人八卦、比較兒女成就、拜金填充空虛,當物質表象成為絕對真理,看似荒誕爆笑的誇張情節,其實早在日常生活中如實上演。

◎获奖情况  

  第72届洛迦诺国际电影节(2019)
  Variety Piazza Grande Award(提名) 乔斯琳·德波尔

  第35届美国独立精神奖(2020)
  最佳处女作剧本(提名) 乔斯琳·德波尔 / 多恩·路比
Video
ID                                       : 1
Format                                   : AVC
Format/Info                              : Advanced Video Codec
Format settings                          : CABAC / 5 Ref Frames
Format settings, CABAC                   : Yes
Format settings, Reference frames        : 5 frames
Codec ID                                 : V_MPEG4/ISO/AVC
Duration                                 : 1 h 36 min
Bit rate                                 : 9 890 kb/s
Width                                    : 1 920 pixels
Height                                   : 816 pixels
Display aspect ratio                     : 2.35:1
Frame rate mode                          : Constant
Frame rate                               : 23.976 (24000/1001) FPS
Color space                              : YUV
Chroma subsampling                       : 4:2:0
Bit depth                                : 8 bits
Scan type                                : Progressive
Bits/(Pixel*Frame)                       : 0.263
Stream size                              : 6.64 GiB (87%)
Writing library                          : x264 core 157 r2969 d4099dd
Encoding settings                        : cabac=1 / ref=5 / deblock=1:-3:-3 / analyse=0x3:0x113 / me=umh / subme=8 / psy=1 / psy_rd=1.00:0.00 / mixed_ref=1 / me_range=16 / chroma_me=1 / trellis=1 / 8x8dct=1 / cqm=0 / deadzone=21,11 / fast_pskip=1 / chroma_qp_offset=-2 / threads=25 / lookahead_threads=4 / sliced_threads=0 / nr=0 / decimate=1 / interlaced=0 / bluray_compat=0 / constrained_intra=0 / bframes=3 / b_pyramid=2 / b_adapt=1 / b_bias=0 / direct=3 / weightb=1 / open_gop=0 / weightp=2 / keyint=250 / keyint_min=23 / scenecut=40 / intra_refresh=0 / rc_lookahead=50 / rc=2pass / mbtree=1 / bitrate=9890 / ratetol=1.0 / qcomp=0.60 / qpmin=0 / qpmax=69 / qpstep=4 / cplxblur=20.0 / qblur=0.5 / ip_ratio=1.40 / aq=1:1.00
Language                                 : English
Default                                  : Yes
Forced                                   : No

Audio
ID                                       : 2
Format                                   : DTS
Format/Info                              : Digital Theater Systems
Codec ID                                 : A_DTS
Duration                                 : 1 h 36 min
Bit rate mode                            : Constant
Bit rate                                 : 1 509 kb/s
Channel(s)                               : 6 channels
Channel layout                           : C L R Ls Rs LFE
Sampling rate                            : 48.0 kHz
Frame rate                               : 93.750 FPS (512 SPF)
Bit depth                                : 24 bits
Compression mode                         : Lossy
Stream size                              : 1.01 GiB (13%)
Language                                 : English
Default                                  : Yes
Forced                                   : No

Menu
00:00:00.000                             : en:00:00:00.000
00:08:47.360                             : en:00:08:47.360
00:15:36.602                             : en:00:15:36.602
00:23:58.062                             : en:00:23:58.062
00:31:28.553                             : en:00:31:28.553
00:36:44.994                             : en:00:36:44.994
00:42:26.419                             : en:00:42:26.419
00:51:08.148                             : en:00:51:08.148
01:00:51.022                             : en:01:00:51.022
01:10:07.995                             : en:01:10:07.995
01:22:13.345                             : en:01:22:13.345
01:33:18.718                             : en:01:33:18.718



                                                                                                                                                                                                        
                                                                                                                                                                                                                                                                                                                                                                                                                                                                                                                                                                                                                                                                                                                                                                                                                                                      
b1191972e2700c3101f1e7b8b162cc16.torrent (39.19 KB, 下载次数: 18)

回复

使用道具 举报

小黑屋|磁力链接吧 |网站地图

本网站所有资源来自网络,如无意中侵犯了您的权益,请发邮件至 aa6353[email protected],立即清除相关链接

GMT+8, 2020-9-23 08:20 , Processed in 0.105638 second(s), 23 queries .

Powered by Discuz! X3.2

© 2001-2013 Comsenz Inc.

快速回复 返回顶部 返回列表