磁力链接吧

 找回密码
 立即注册
搜索

弗兰琪 Frankie.2019.1080p.BluRay.x264-AAA 6.55GB

[复制链接]
百度云资源 发表于 2020-2-7 18:54:42 | 显示全部楼层 |阅读模式
帖子完整标题:弗兰琪 Frankie.2019.1080p.BluRay.x264-AAA 6.55GB




◎译  名 弗兰琪 / A Family Vacation / 仲夏家庭絮语(台) / 家庭旅行 / 弗兰基
◎片  名 Frankie
◎年  代 2019
◎产  地 法国 / 葡萄牙 / 比利时 / 美国
◎类  别 剧情 / 家庭
◎语  言 英语 / 法语 / 葡萄牙语
◎上映日期 2019-05-20(戛纳电影节) / 2019-08-28(法国)
◎IMDb评分  5.3/10 from 506 users
◎片  长 98分钟
◎导  演 艾拉·萨克斯 Ira Sachs
◎编  剧 艾拉·萨克斯 Ira Sachs / 毛里西奥·扎克瑞亚斯 Mauricio Zacharias
◎主  演 伊莎贝尔·于佩尔 Isabelle Huppert
       布莱丹·格里森 Brendan Gleeson
       玛丽莎·托梅 Marisa Tomei
       杰瑞米·雷乃 Jérémie Renier
       格雷戈·金尼尔 Greg Kinnear
       雯叶特·罗宾逊 Vinette Robinson
       森尼娅·纳阿 Sennia Nanua
       阿利安·巴克瑞 Ariyon Bakare
       卡里托·科塔 Carloto Cotta
       帕斯卡尔·格雷戈里 Pascal Greggory
       Mikaela Lupu
       Márcia Breia


◎标  签 法国 | 2019 | 于佩尔 | 家庭 | IsabelleHuppert | 剧情 | 美国 | 法国电影

◎简  介  

  演员弗兰琪一家从各地相聚于葡萄牙小城辛特拉,准备度过一个惬意的家庭假期。弗兰琪朋友伊莲娜的偶然到来打乱了计划,家庭成员们也都各怀心事。一家人三三两两地漫步在辛特拉,在清新的自然野趣和闲适的城市街景中尝试通过对话解决问题。没想到弗兰琪隐藏了一个足以影响所有人的秘密。在一家人心情沉重之时,她自己却在这场漫步的最后变得云淡风轻了起来。以小清新著称的导演艾拉·萨克斯集合群星,到葡萄牙旅游小城展开一趟叩问心灵的旅程。

◎获奖情况  

  第72届戛纳电影节(2019)
  主竞赛单元 金棕榈奖(提名) 艾拉·萨克斯
Video
ID                                       : 1
Format                                   : AVC
Format/Info                              : Advanced Video Codec
Format settings                          : CABAC / 4 Ref Frames
Format settings, CABAC                   : Yes
Format settings, Reference frames        : 4 frames
Codec ID                                 : V_MPEG4/ISO/AVC
Duration                                 : 1 h 40 min
Bit rate                                 : 8 713 kb/s
Width                                    : 1 792 pixels
Height                                   : 1 080 pixels
Display aspect ratio                     : 5:3
Frame rate mode                          : Constant
Frame rate                               : 23.976 (24000/1001) FPS
Color space                              : YUV
Chroma subsampling                       : 4:2:0
Bit depth                                : 8 bits
Scan type                                : Progressive
Bits/(Pixel*Frame)                       : 0.188
Stream size                              : 6.10 GiB (93%)
Writing library                          : x264 core 159 r2991 1771b55
Encoding settings                        : cabac=1 / ref=4 / deblock=1:-3:-3 / analyse=0x3:0x113 / me=umh / subme=7 / psy=1 / psy_rd=1.00:0.00 / mixed_ref=1 / me_range=16 / chroma_me=1 / trellis=1 / 8x8dct=1 / cqm=0 / deadzone=21,11 / fast_pskip=0 / chroma_qp_offset=-2 / threads=9 / lookahead_threads=1 / sliced_threads=0 / nr=0 / decimate=1 / interlaced=0 / bluray_compat=0 / constrained_intra=0 / bframes=3 / b_pyramid=2 / b_adapt=1 / b_bias=0 / direct=3 / weightb=1 / open_gop=0 / weightp=2 / keyint=240 / keyint_min=23 / scenecut=40 / intra_refresh=0 / rc_lookahead=50 / rc=2pass / mbtree=0 / bitrate=8713 / ratetol=1.0 / qcomp=0.60 / qpmin=0 / qpmax=69 / qpstep=4 / cplxblur=20.0 / qblur=0.5 / vbv_maxrate=62500 / vbv_bufsize=78125 / nal_hrd=none / filler=0 / ip_ratio=1.40 / pb_ratio=1.30 / aq=1:0.78
Default                                  : Yes
Forced                                   : No

Audio
ID                                       : 2
Format                                   : AC-3
Format/Info                              : Audio Coding 3
Commercial name                          : Dolby Digital
Codec ID                                 : A_AC3
Duration                                 : 1 h 40 min
Bit rate mode                            : Constant
Bit rate                                 : 640 kb/s
Channel(s)                               : 6 channels
Channel layout                           : L R C LFE Ls Rs
Sampling rate                            : 48.0 kHz
Frame rate                               : 31.250 FPS (1536 SPF)
Bit depth                                : 16 bits
Compression mode                         : Lossy
Stream size                              : 458 MiB (7%)
Language                                 : English
Service kind                             : Complete Main
Default                                  : Yes
Forced                                   : No

Text #1
ID                                       : 3
Format                                   : UTF-8
Codec ID                                 : S_TEXT/UTF8
Codec ID/Info                            : UTF-8 Plain Text
Duration                                 : 59 min 47 s
Bit rate                                 : 11 b/s
Count of elements                        : 176
Stream size                              : 4.96 KiB (0%)
Language                                 : English
Default                                  : Yes
Forced                                   : Yes

Text #2
ID                                       : 4
Format                                   : UTF-8
Codec ID                                 : S_TEXT/UTF8
Codec ID/Info                            : UTF-8 Plain Text
Duration                                 : 1 h 25 min
Bit rate                                 : 57 b/s
Count of elements                        : 1100
Stream size                              : 36.2 KiB (0%)
Language                                 : English
Default                                  : No
Forced                                   : No

Menu
00:00:00.000                             : :Chapter 01
00:05:39.130                             : :Chapter 02
00:11:42.327                             : :Chapter 03
00:17:56.158                             : :Chapter 04
00:23:33.704                             : :Chapter 05
00:31:32.766                             : :Chapter 06
00:35:19.492                             : :Chapter 07
00:42:22.623                             : :Chapter 08
00:50:08.505                             : :Chapter 09
00:56:03.652                             : :Chapter 10
01:02:28.787                             : :Chapter 11
01:11:02.383                             : :Chapter 12
01:13:28.487                             : :Chapter 13
01:19:50.202                             : :Chapter 14
01:23:18.994                             : :Chapter 15
01:26:33.438                             : :Chapter 16
01:40:08.711                             : :Chapter 17



                                                                                                                                                                                                        
                                                                                                                                                                                                                                                                                                                                                                                                                                                                                                                                                                                                                                                                                                                                                                                                                                                      
cf0cefab1a77852c238831c5ee5e3c49.torrent (33.37 KB, 下载次数: 17)

回复

使用道具 举报

小黑屋|磁力链接吧 |网站地图

本网站所有资源来自网络,如无意中侵犯了您的权益,请发邮件至 [email protected],立即清除相关链接

GMT+8, 2020-2-20 08:13 , Processed in 0.073011 second(s), 23 queries .

Powered by Discuz! X3.2

© 2001-2013 Comsenz Inc.

快速回复 返回顶部 返回列表