磁力链接吧

 找回密码
 立即注册
搜索

马丁·伊登 Martin.Eden.2019.720p.BluRay.x264-USURY 5.48GB

[复制链接]
百度云资源 发表于 2020-2-7 18:18:46 | 显示全部楼层 |阅读模式
帖子完整标题:马丁·伊登 Martin.Eden.2019.720p.BluRay.x264-USURY 5.48GB




◎译  名 马丁·伊登
◎片  名 Martin Eden
◎年  代 2019
◎产  地 意大利 / 法国 / 德国
◎类  别 剧情
◎语  言 意大利语 / 那不勒斯语 / 法语
◎上映日期 2019-09-02(威尼斯电影节) / 2019-09-04(意大利)
◎IMDb评分  7.0/10 from 1221 users
◎片  长 129分钟
◎导  演 皮耶特罗·马切罗 Pietro Marcello
◎编  剧 杰克·伦敦 Jack London / 毛里齐奥·布拉奇 Maurizio Braucci / 皮耶特罗·马切罗 Pietro Marcello
◎主  演 卢卡·马里内利 Luca Marinelli
       杰西卡·塞西 Jessica Cressy
       文森佐·内莫拉托 Vincenzo Nemolato
       马克·莱昂纳蒂 Marco Leonardi
       丹妮丝·萨迪斯科 Denise Sardisco
       卡门·波梅拉 Carmen Pommella
       卡洛·切基 Carlo Cecchi
       奥蒂莉亚·拉涅利 Autilia Ranieri
       伊丽莎白·瓦尔古 Elisabetta Valgoi
       彼得罗·拉古萨 Pietro Ragusa
       萨维诺·帕帕雷拉 Savino Paparella
       文琴察·莫迪卡 Vincenza Modica
       查士丁尼·阿尔皮 Giustiniano Alpi
       朱塞佩·伊利亚诺 Giuseppe Iuliano
       佩佩·马吉奥 Peppe Maggio
       毛里齐奥·多纳多尼 Maurizio Donadoni
       加埃塔诺·布鲁诺 Gaetano Bruno
       阿涅洛·阿雷纳 Aniello Arena
       琪娅拉·弗兰西妮 Chiara Francini
       里纳特·希什马塔林 Rinat Khismatouline


◎标  签 意大利 | 2019 | 文学改编 | 剧情 | 爱情 | 文艺 | 法国 | 威尼斯电影节

◎简  介  

  改编自杰克·伦敦(Jack London)的同名小说:水手马丁爱上上流社会的小姐伊琳娜,在爱情的鼓励下努力写作,最后成为知名作家,登上上流社会的顶峰之后忽然发现一切都是空虚。

◎获奖情况  

  第76届威尼斯电影节(2019)
  主竞赛单元 金狮奖 (提名) 皮耶特罗·马切罗
  沃尔皮杯 最佳男演员 卢卡·马里内利

  第44届多伦多国际电影节(2019)
  站台奖 皮耶特罗·马切罗
Video
ID                                       : 1
Format                                   : AVC
Format/Info                              : Advanced Video Codec
Format settings                          : CABAC / 5 Ref Frames
Format settings, CABAC                   : Yes
Format settings, Reference frames        : 5 frames
Codec ID                                 : V_MPEG4/ISO/AVC
Duration                                 : 2 h 8 min
Bit rate                                 : 4 558 kb/s
Width                                    : 1 216 pixels
Height                                   : 720 pixels
Display aspect ratio                     : 5:3
Frame rate mode                          : Constant
Frame rate                               : 23.976 (24000/1001) FPS
Color space                              : YUV
Chroma subsampling                       : 4:2:0
Bit depth                                : 8 bits
Scan type                                : Progressive
Bits/(Pixel*Frame)                       : 0.217
Stream size                              : 4.10 GiB (75%)
Writing library                          : x264 core 157 r2969 d4099dd
Encoding settings                        : cabac=1 / ref=5 / deblock=1:-3:-3 / analyse=0x3:0x133 / me=umh / subme=9 / psy=1 / psy_rd=1.00:0.00 / mixed_ref=1 / me_range=16 / chroma_me=1 / trellis=2 / 8x8dct=1 / cqm=0 / deadzone=21,11 / fast_pskip=0 / chroma_qp_offset=-2 / threads=18 / lookahead_threads=1 / sliced_threads=0 / nr=0 / decimate=1 / interlaced=0 / bluray_compat=0 / constrained_intra=0 / bframes=3 / b_pyramid=2 / b_adapt=1 / b_bias=0 / direct=3 / weightb=1 / open_gop=0 / weightp=2 / keyint=240 / keyint_min=24 / scenecut=40 / intra_refresh=0 / rc_lookahead=50 / rc=2pass / mbtree=1 / bitrate=4558 / ratetol=1.0 / qcomp=0.60 / qpmin=0 / qpmax=69 / qpstep=4 / cplxblur=20.0 / qblur=0.5 / ip_ratio=1.40 / aq=1:1.00
Language                                 : English
Default                                  : Yes
Forced                                   : No

Audio
ID                                       : 2
Format                                   : DTS
Format/Info                              : Digital Theater Systems
Codec ID                                 : A_DTS
Duration                                 : 2 h 8 min
Bit rate mode                            : Constant
Bit rate                                 : 1 509 kb/s
Channel(s)                               : 6 channels
Channel layout                           : C L R Ls Rs LFE
Sampling rate                            : 48.0 kHz
Frame rate                               : 93.750 FPS (512 SPF)
Bit depth                                : 24 bits
Compression mode                         : Lossy
Stream size                              : 1.36 GiB (25%)
Language                                 : Italian
Default                                  : Yes
Forced                                   : No

Text #1
ID                                       : 3
Format                                   : UTF-8
Codec ID                                 : S_TEXT/UTF8
Codec ID/Info                            : UTF-8 Plain Text
Duration                                 : 1 h 58 min
Bit rate                                 : 47 b/s
Count of elements                        : 1353
Stream size                              : 41.1 KiB (0%)
Title                                    : English
Language                                 : English
Default                                  : Yes
Forced                                   : Yes

Text #2
ID                                       : 4
Format                                   : UTF-8
Codec ID                                 : S_TEXT/UTF8
Codec ID/Info                            : UTF-8 Plain Text
Duration                                 : 2 h 6 min
Bit rate                                 : 46 b/s
Count of elements                        : 1358
Stream size                              : 43.0 KiB (0%)
Title                                    : French
Language                                 : French
Default                                  : No
Forced                                   : No

Menu
00:00:00.000                             : en:00:00:00.000
00:06:18.712                             : en:00:06:18.712
00:12:49.727                             : en:00:12:49.727
00:28:27.664                             : en:00:28:27.664
00:50:27.233                             : en:00:50:27.233
00:56:57.497                             : en:00:56:57.497
01:04:58.144                             : en:01:04:58.144
01:11:24.864                             : en:01:11:24.864
01:19:15.000                             : en:01:19:15.000
01:39:20.079                             : en:01:39:20.079
01:46:53.407                             : en:01:46:53.407
01:53:44.192                             : en:01:53:44.192



                                                                                                                                                                                                        
                                                                                                                                                                                                                                                                                                                                                                                                                                                                                                                                                                                                                                                                                                                                                                                                                                                      
6a1e8f4b3b61b90cead024d4c3921584.torrent (28.19 KB, 下载次数: 1)

回复

使用道具 举报

小黑屋|磁力链接吧 |网站地图

本网站所有资源来自网络,如无意中侵犯了您的权益,请发邮件至 [email protected],立即清除相关链接

GMT+8, 2020-9-26 02:37 , Processed in 0.095614 second(s), 23 queries .

Powered by Discuz! X3.2

© 2001-2013 Comsenz Inc.

快速回复 返回顶部 返回列表