磁力链接吧

 找回密码
 立即注册
搜索

大作战/伟大的战争 The.Great.War.2019.720p.BluRay.x264-ROVERS 5.47GB

[复制链接]
百度云资源 发表于 2020-2-7 18:18:46 | 显示全部楼层 |阅读模式
帖子完整标题:大作战/伟大的战争 The.Great.War.2019.720p.BluRay.x264-ROVERS 5.47GB




◎译  名 大作战 / 伟大的战争 / 大作战 黑白大作战
◎片  名 The Great War
◎年  代 2019
◎产  地 美国
◎类  别 剧情 / 战争
◎语  言 英语
◎上映日期 2019-04-07(美国)
◎IMDb评分  3.5/10 from 349 users
◎导  演 史蒂文·卢克 Steven Luke
◎编  剧 史蒂文·卢克 Steven Luke
◎主  演 比利·赞恩 Billy Zane
       朗·普尔曼 Ron Perlman
       贝茨·怀尔德 Bates Wilder
       海勒姆·穆雷 Hiram A. Murray
       Jordan McFadden
       Edgar Damatian
       Ryan J. Gilmer
       Andrew Stecker
       Wade Everett
       Judah McFadden
       Aaron Courteau


◎标  签 美国 | 一战 | 种族 | 老兵 | 战争 | 大作战 | (2019) | 性奴,反转

◎简  介  

  During the last days of the Great War, A group of U.S. soldiers are sent behind enemy lines to rescue a lost platoon.
Video
ID                                       : 1
Format                                   : AVC
Format/Info                              : Advanced Video Codec
Format settings                          : CABAC / 5 Ref Frames
Format settings, CABAC                   : Yes
Format settings, Reference frames        : 5 frames
Codec ID                                 : V_MPEG4/ISO/AVC
Duration                                 : 1 h 49 min
Bit rate                                 : 5 623 kb/s
Width                                    : 1 280 pixels
Height                                   : 536 pixels
Display aspect ratio                     : 2.40:1
Frame rate mode                          : Constant
Frame rate                               : 23.976 (24000/1001) FPS
Color space                              : YUV
Chroma subsampling                       : 4:2:0
Bit depth                                : 8 bits
Scan type                                : Progressive
Bits/(Pixel*Frame)                       : 0.342
Stream size                              : 4.31 GiB (79%)
Writing library                          : x264 core 159 r2991 1771b55
Encoding settings                        : cabac=1 / ref=5 / deblock=1:-3:-3 / analyse=0x3:0x133 / me=umh / subme=8 / psy=1 / psy_rd=1.00:0.00 / mixed_ref=1 / me_range=16 / chroma_me=1 / trellis=1 / 8x8dct=1 / cqm=0 / deadzone=21,11 / fast_pskip=0 / chroma_qp_offset=-2 / threads=17 / lookahead_threads=2 / sliced_threads=0 / nr=0 / decimate=1 / interlaced=0 / bluray_compat=0 / constrained_intra=0 / bframes=3 / b_pyramid=2 / b_adapt=1 / b_bias=0 / direct=3 / weightb=1 / open_gop=0 / weightp=2 / keyint=250 / keyint_min=23 / scenecut=40 / intra_refresh=0 / rc_lookahead=50 / rc=2pass / mbtree=1 / bitrate=5623 / ratetol=1.0 / qcomp=0.60 / qpmin=0 / qpmax=69 / qpstep=4 / cplxblur=20.0 / qblur=0.5 / vbv_maxrate=62500 / vbv_bufsize=78125 / nal_hrd=none / filler=0 / ip_ratio=1.40 / aq=1:1.00
Default                                  : Yes
Forced                                   : No

Audio
ID                                       : 2
Format                                   : DTS
Format/Info                              : Digital Theater Systems
Codec ID                                 : A_DTS
Duration                                 : 1 h 49 min
Bit rate mode                            : Constant
Bit rate                                 : 1 509 kb/s
Channel(s)                               : 6 channels
Channel layout                           : C L R Ls Rs LFE
Sampling rate                            : 48.0 kHz
Frame rate                               : 93.750 FPS (512 SPF)
Bit depth                                : 24 bits
Compression mode                         : Lossy
Stream size                              : 1.16 GiB (21%)
Language                                 : English
Default                                  : Yes
Forced                                   : No

Menu
00:00:00.000                             : en:00:00:00.000
00:08:28.967                             : en:00:08:28.967
00:14:52.517                             : en:00:14:52.517
00:18:34.280                             : en:00:18:34.280
00:26:49.691                             : en:00:26:49.691
00:30:58.440                             : en:00:30:58.440
00:37:51.019                             : en:00:37:51.019
00:43:50.878                             : en:00:43:50.878
00:49:25.880                             : en:00:49:25.880
00:57:50.842                             : en:00:57:50.842
01:05:56.953                             : en:01:05:56.953
01:08:35.111                             : en:01:08:35.111
01:15:30.443                             : en:01:15:30.443
01:22:15.931                             : en:01:22:15.931
01:28:55.997                             : en:01:28:55.997
01:38:03.711                             : en:01:38:03.711



                                                                                                                                                                                                        
                                                                                                                                                                                                                                                                                                                                                                                                                                                                                                                                                                                                                                                                                                                                                                                                                                                      
dbba38351278d87848c8266337af257a.torrent (28.17 KB, 下载次数: 8)

回复

使用道具 举报

小黑屋|磁力链接吧 |网站地图

本网站所有资源来自网络,如无意中侵犯了您的权益,请发邮件至 [email protected],立即清除相关链接

GMT+8, 2020-2-21 21:37 , Processed in 0.072649 second(s), 23 queries .

Powered by Discuz! X3.2

© 2001-2013 Comsenz Inc.

快速回复 返回顶部 返回列表