磁力链接吧

 找回密码
 立即注册
搜索

我们的罗伊·科恩哪儿去了?/川普導師:羅依科恩 Wheres.My.Roy... ...

[复制链接]
百度云资源 发表于 2020-2-7 18:18:46 | 显示全部楼层 |阅读模式
帖子完整标题:我们的罗伊·科恩哪儿去了?/川普導師:羅依科恩 Wheres.My.Roy.Cohn.2019.720p.BluRay.x264-CADAVER 4.40GB




◎译  名 我们的罗伊·科恩哪儿去了? / 川普導師:羅依科恩(台)
◎片  名 Where's My Roy Cohn?
◎年  代 2019
◎产  地 美国
◎类  别 纪录片
◎语  言 英语
◎上映日期 2019-01-25(圣丹斯电影节)
◎IMDb评分  6.2/10 from 394 users
◎片  长 97分钟(圣丹斯电影节)
◎导  演 马特·蒂瑙尔 Matt Tyrnauer
◎主  演 Roy M. Cohn
       罗杰·斯通 Roger Stone
       Barbara Walters


◎标  签 美国 | 纪录片 | 右翼 | 政治 | reco | PA-SundanceA纪录片竞赛/美国纪录片 | 2010s

◎简  介  

  Roy Cohn personified the dark arts of American politics, turning empty vessels into dangerous demagogues - from Joseph McCarthy to his final project, Donald J. Trump. This thriller-like exposé connects the dots, revealing how a deeply troubled master manipulator shaped our current American nightmare.

◎获奖情况  

  第35届圣丹斯电影节(2019)
  评审团大奖 纪录片(提名) 马特·蒂瑙尔
Video
ID                                       : 1
Format                                   : AVC
Format/Info                              : Advanced Video Codec
Format settings                          : CABAC / 9 Ref Frames
Format settings, CABAC                   : Yes
Format settings, Reference frames        : 9 frames
Codec ID                                 : V_MPEG4/ISO/AVC
Duration                                 : 1 h 37 min
Bit rate                                 : 4 893 kb/s
Width                                    : 1 280 pixels
Height                                   : 720 pixels
Display aspect ratio                     : 16:9
Frame rate mode                          : Constant
Frame rate                               : 23.976 (24000/1001) FPS
Color space                              : YUV
Chroma subsampling                       : 4:2:0
Bit depth                                : 8 bits
Scan type                                : Progressive
Bits/(Pixel*Frame)                       : 0.221
Stream size                              : 3.34 GiB (76%)
Writing library                          : x264 core 159 r2991 1771b55
Encoding settings                        : cabac=1 / ref=9 / deblock=1:-3:-3 / analyse=0x3:0x133 / me=umh / subme=9 / psy=1 / psy_rd=1.00:0.00 / mixed_ref=1 / me_range=24 / chroma_me=1 / trellis=1 / 8x8dct=1 / cqm=0 / deadzone=21,11 / fast_pskip=0 / chroma_qp_offset=-2 / threads=6 / lookahead_threads=1 / sliced_threads=0 / nr=0 / decimate=1 / interlaced=0 / bluray_compat=0 / constrained_intra=0 / bframes=8 / b_pyramid=2 / b_adapt=2 / b_bias=0 / direct=3 / weightb=1 / open_gop=0 / weightp=2 / keyint=250 / keyint_min=23 / scenecut=40 / intra_refresh=0 / rc_lookahead=60 / rc=2pass / mbtree=1 / bitrate=4893 / ratetol=1.0 / qcomp=0.60 / qpmin=0 / qpmax=69 / qpstep=4 / cplxblur=20.0 / qblur=0.5 / vbv_maxrate=62500 / vbv_bufsize=78125 / nal_hrd=none / filler=0 / ip_ratio=1.40 / aq=1:1.00
Default                                  : Yes
Forced                                   : No

Audio
ID                                       : 2
Format                                   : DTS
Format/Info                              : Digital Theater Systems
Codec ID                                 : A_DTS
Duration                                 : 1 h 37 min
Bit rate mode                            : Constant
Bit rate                                 : 1 509 kb/s
Channel(s)                               : 6 channels
Channel layout                           : C L R Ls Rs LFE
Sampling rate                            : 48.0 kHz
Frame rate                               : 93.750 FPS (512 SPF)
Bit depth                                : 24 bits
Compression mode                         : Lossy
Stream size                              : 1.03 GiB (24%)
Language                                 : English
Default                                  : Yes
Forced                                   : No

Text
ID                                       : 3
Format                                   : UTF-8
Codec ID                                 : S_TEXT/UTF8
Codec ID/Info                            : UTF-8 Plain Text
Duration                                 : 1 h 18 min
Bit rate                                 : 4 b/s
Count of elements                        : 55
Stream size                              : 2.54 KiB (0%)
Title                                    : Forced
Language                                 : English
Default                                  : Yes
Forced                                   : Yes

Menu
00:00:00.000                             : en:Chapter 01
00:05:30.163                             : en:Chapter 02
00:11:44.245                             : en:Chapter 03
00:15:01.776                             : en:Chapter 04
00:18:06.919                             : en:Chapter 05
00:21:37.421                             : en:Chapter 06
00:29:11.541                             : en:Chapter 07
00:34:10.298                             : en:Chapter 08
00:40:08.239                             : en:Chapter 09
00:46:02.301                             : en:Chapter 10
00:52:46.205                             : en:Chapter 11
01:00:29.125                             : en:Chapter 12
01:09:39.217                             : en:Chapter 13
01:18:51.310                             : en:Chapter 14
01:24:58.760                             : en:Chapter 15
01:31:55.844                             : en:Chapter 16
01:37:34.182                             : en:Chapter 17



                                                                                                                                                                                                        
                                                                                                                                                                                                                                                                                                                                                                                                                                                                                                                                                                                                                                                                                                                                                                                                                                                      
a034ee9a4b02311873cfb8567b2f0790.torrent (44.89 KB, 下载次数: 12)

回复

使用道具 举报

小黑屋|磁力链接吧 |网站地图

本网站所有资源来自网络,如无意中侵犯了您的权益,请发邮件至 [email protected],立即清除相关链接

GMT+8, 2020-9-27 09:26 , Processed in 0.124402 second(s), 23 queries .

Powered by Discuz! X3.2

© 2001-2013 Comsenz Inc.

快速回复 返回顶部 返回列表