磁力链接吧

 找回密码
 立即注册
搜索

掠夺者 Snatchers.2019.720p.BluRay.x264-YOL0W 4.38GB

[复制链接]
百度云资源 发表于 2020-2-7 18:18:46 | 显示全部楼层 |阅读模式
帖子完整标题:掠夺者 Snatchers.2019.720p.BluRay.x264-YOL0W 4.38GB




◎译  名 掠夺者
◎片  名 Snatchers
◎年  代 2019
◎产  地 美国
◎类  别 喜剧 / 科幻 / 恐怖
◎语  言 英语
◎上映日期 2019-10-08(西班牙)
◎IMDb评分  5.3/10 from 836 users
◎片  长 96分钟
◎导  演 斯蒂芬·斯达思 Stephen Cedars / 本吉·克莱曼 Benji Kleiman
◎编  剧 斯蒂芬·斯达思 Stephen Cedars / 本吉·克莱曼 Benji Kleiman / Scott Yacyshyn
◎主  演 玛丽·纳皮 Mary Nepi
       加布里埃尔·伊利斯 Gabrielle Elyse
       奥斯汀·法瑞伯格 Austin Fryberger
       J·J·诺兰 J.J. Nolan
       尼克·戈麦斯 Nick Gomez
       阿什丽·阿戈塔 Ashley Argota


◎标  签 喜剧 | 恐怖 | 美国 | 2019 | 科幻 | 搞笑 | 黑色幽默 | 魔幻

◎简  介  

  Sara破处后的第二天醒来发现自己怀孕了,而且已经怀了9个月,更可怕的是她怀的居然是个外星人。
Video
ID                                       : 1
Format                                   : AVC
Format/Info                              : Advanced Video Codec
Format settings                          : CABAC / 8 Ref Frames
Format settings, CABAC                   : Yes
Format settings, Reference frames        : 8 frames
Codec ID                                 : V_MPEG4/ISO/AVC
Duration                                 : 1 h 36 min
Bit rate                                 : 4 949 kb/s
Width                                    : 1 280 pixels
Height                                   : 576 pixels
Display aspect ratio                     : 2.222
Frame rate mode                          : Constant
Frame rate                               : 23.976 (24000/1001) FPS
Color space                              : YUV
Chroma subsampling                       : 4:2:0
Bit depth                                : 8 bits
Scan type                                : Progressive
Bits/(Pixel*Frame)                       : 0.280
Stream size                              : 3.35 GiB (77%)
Writing library                          : x264 core 159 r2991 1771b55
Encoding settings                        : cabac=1 / ref=8 / deblock=1:-3:-3 / analyse=0x3:0x133 / me=umh / subme=7 / psy=1 / psy_rd=1.00:0.00 / mixed_ref=1 / me_range=16 / chroma_me=1 / trellis=2 / 8x8dct=1 / cqm=0 / deadzone=21,11 / fast_pskip=1 / chroma_qp_offset=-2 / threads=16 / lookahead_threads=2 / sliced_threads=0 / nr=0 / decimate=1 / interlaced=0 / bluray_compat=0 / constrained_intra=0 / bframes=3 / b_pyramid=2 / b_adapt=2 / b_bias=0 / direct=3 / weightb=1 / open_gop=0 / weightp=2 / keyint=250 / keyint_min=23 / scenecut=40 / intra_refresh=0 / rc_lookahead=50 / rc=2pass / mbtree=1 / bitrate=4949 / ratetol=1.0 / qcomp=0.60 / qpmin=0 / qpmax=69 / qpstep=4 / cplxblur=20.0 / qblur=0.5 / ip_ratio=1.40 / aq=1:1.00
Language                                 : English
Default                                  : Yes
Forced                                   : No
Color range                              : Limited
Matrix coefficients                      : BT.709

Audio
ID                                       : 2
Format                                   : DTS
Format/Info                              : Digital Theater Systems
Codec ID                                 : A_DTS
Duration                                 : 1 h 36 min
Bit rate mode                            : Constant
Bit rate                                 : 1 509 kb/s
Channel(s)                               : 6 channels
Channel layout                           : C L R Ls Rs LFE
Sampling rate                            : 48.0 kHz
Frame rate                               : 93.750 FPS (512 SPF)
Bit depth                                : 24 bits
Compression mode                         : Lossy
Stream size                              : 1.02 GiB (23%)
Title                                    : English
Language                                 : English
Default                                  : Yes
Forced                                   : No

Menu
00:00:00.000                             : en:Chapter 01
00:10:05.522                             : en:Chapter 02
00:19:35.132                             : en:Chapter 03
00:28:34.212                             : en:Chapter 04
00:36:23.640                             : en:Chapter 05
00:45:41.447                             : en:Chapter 06
00:55:28.367                             : en:Chapter 07
01:04:53.473                             : en:Chapter 08
01:15:18.681                             : en:Chapter 09
01:26:54.292                             : en:Chapter 10
01:34:14.482                             : en:Chapter 11



                                                                                                                                                                                                        
                                                                                                                                                                                                                                                                                                                                                                                                                                                                                                                                                                                                                                                                                                                                                                                                                                                      
4758d8194e5a9c2811c86d9c5cc35a5e.torrent (44.38 KB, 下载次数: 17)

回复

使用道具 举报

小黑屋|磁力链接吧 |网站地图

本网站所有资源来自网络,如无意中侵犯了您的权益,请发邮件至 [email protected],立即清除相关链接

GMT+8, 2020-2-21 21:17 , Processed in 0.283144 second(s), 23 queries .

Powered by Discuz! X3.2

© 2001-2013 Comsenz Inc.

快速回复 返回顶部 返回列表