磁力链接吧

 找回密码
 立即注册
搜索

[BD-4K] 星球大战 Star.Wars.Episode.IV.A.New.Hope.1977.INTERNAL.ALTERNATIVE.CUT.HD...

[复制链接]
百度云资源 发表于 2020-2-7 17:32:54 | 显示全部楼层 |阅读模式
帖子完整标题:星球大战 Star.Wars.Episode.IV.A.New.Hope.1977.INTERNAL.ALTERNATIVE.CUT.HDR.2160p.WEB.H265-UHDCANDY 14.81GB




◎译  名 星球大战 / Star Wars: Episode IV - A New Hope / 星球大战第四集:新希望 / 星际大战 / 星际大战四部曲:曙光乍现
◎片  名 Star Wars
◎年  代 1977
◎产  地 美国
◎类  别 动作 / 科幻 / 冒险
◎语  言 英语
◎上映日期 1977-05-25(美国)
◎IMDb评分  8.6/10 from 1170603 users
◎片  长 121分钟
◎导  演 乔治·卢卡斯 George Lucas
◎编  剧 乔治·卢卡斯 George Lucas
◎主  演 哈里森·福特 Harrison Ford
       马克·哈米尔 Mark Hamill
       凯丽·费雪 Carrie Fisher
       彼得·库欣 Peter Cushing
       亚利克·基尼斯 Alec Guinness
       彼特·梅靥 Peter Mayhew
       大卫·鲍罗斯 David Prowse
       詹姆斯·厄尔·琼斯 James Earl Jones


◎标  签 科幻 | 星球大战 | 美国 | 经典 | 1977 | 动作 | 冒险 | 战争

◎简  介  

  遥远星系发生叛乱,银河共和国被推翻,奥尔德兰星的莉亚公主(卡里?费什尔 Carrie Fisher 饰)领导抵抗组织对抗银河帝国,却不幸被银河帝国的维德勋爵(大卫?普劳斯 David Prowse 饰)所俘。机器人R2-D2携银河帝国新武器“死星”的结构图与同伴翻译机器人C-3PO逃至塔图因星,途中被加瓦人抓住卖给青年卢克?天行者(马克?哈米尔 Mark Hamill 饰)的叔父。在卢克的帮助下,众人阴错阳差找到了隐居的绝地武士欧比-旺?肯诺比(亚历克?吉尼斯 Alec Guinness 饰)。欧比-旺交给卢克绝地之道,并带卢克与两机器人到港口城市茅斯伊斯垒,雇佣走私者韩?索罗(哈里森?福特饰)的千年隼飞船前往奥尔德兰……
  本片获第50界奥斯卡最佳艺术指导,最佳服装设计,最佳视觉效果,最佳剪辑,最佳原创音乐,最佳声效六项大奖及特殊贡献奖(本?伯特 Ben Burtt),并获最佳电影,最佳男配角(亚历克?吉尼斯),最佳导演(乔治?卢卡斯),最佳原创电影音乐四项提名。

◎获奖情况  

  第50届奥斯卡金像奖(1978)
  最佳影片(提名) 加里·库尔茨
  最佳导演(提名) 乔治·卢卡斯
  最佳男配角(提名) 亚历克·吉尼斯
  最佳原创剧本(提名) 乔治·卢卡斯
  最佳剪辑 赵汝钜 / 保罗·赫希 / Marcia Lucas
  最佳视觉效果 约翰·戴克斯特拉 / 理查德·艾德兰德 / John Stears / Robert Blalack / 格兰特·麦丘恩
  最佳音响 唐·麦克杜格尔 / Bob Minkler / Derek Ball / Ray West
  最佳艺术指导 诺曼·雷诺兹 / 罗杰·克里斯蒂安 / John Barry / 莱斯利·迪利
  最佳服装设计 John Mollo
  最佳原创配乐 约翰·威廉姆斯
  特别成就奖 本·贝尔特

  第3届报知映画赏(1978)
  海外作品奖 乔治·卢卡斯
Video
ID                                       : 1
Format                                   : HEVC
Format/Info                              : High Efficiency Video Coding
Codec ID                                 : V_MPEGH/ISO/HEVC
Duration                                 : 2 h 4 min
Bit rate                                 : 16.2 Mb/s
Width                                    : 3 840 pixels
Height                                   : 2 160 pixels
Display aspect ratio                     : 16:9
Frame rate mode                          : Constant
Frame rate                               : 23.976 (24000/1001) FPS
Color space                              : YUV
Chroma subsampling                       : 4:2:0
Bit depth                                : 10 bits
Bits/(Pixel*Frame)                       : 0.082
Stream size                              : 14.1 GiB (95%)
Default                                  : Yes
Forced                                   : No
Color range                              : Limited
Color primaries                          : BT.2020
Transfer characteristics                 : PQ
Matrix coefficients                      : BT.2020 non-constant

Audio
ID                                       : 2
Format                                   : E-AC-3 JOC
Format/Info                              : Enhanced AC-3 with Joint Object Coding
Commercial name                          : Dolby Digital Plus with Dolby Atmos
Codec ID                                 : A_EAC3
Duration                                 : 2 h 4 min
Bit rate mode                            : Constant
Bit rate                                 : 768 kb/s
Channel(s)                               : 6 channels
Channel layout                           : L R C LFE Ls Rs
Sampling rate                            : 48.0 kHz
Frame rate                               : 31.250 FPS (1536 SPF)
Compression mode                         : Lossy
Stream size                              : 685 MiB (5%)
Language                                 : English
Service kind                             : Complete Main
Default                                  : Yes
Forced                                   : No
Complexity index                         : 16
Number of dynamic objects                : 15
Bed channel count                        : 1 channel
Bed channel configuration                : LFE

Text #1
ID                                       : 3
Format                                   : UTF-8
Codec ID                                 : S_TEXT/UTF8
Codec ID/Info                            : UTF-8 Plain Text
Duration                                 : 4 min 3 s
Bit rate                                 : 32 b/s
Count of elements                        : 29
Stream size                              : 981 Bytes (0%)
Language                                 : English
Default                                  : Yes
Forced                                   : Yes

Text #2
ID                                       : 4
Format                                   : UTF-8
Codec ID                                 : S_TEXT/UTF8
Codec ID/Info                            : UTF-8 Plain Text
Duration                                 : 1 h 57 min
Bit rate                                 : 62 b/s
Count of elements                        : 1383
Stream size                              : 54.0 KiB (0%)
Language                                 : English
Default                                  : No
Forced                                   : No

Text #3
ID                                       : 5
Format                                   : UTF-8
Codec ID                                 : S_TEXT/UTF8
Codec ID/Info                            : UTF-8 Plain Text
Duration                                 : 1 h 57 min
Bit rate                                 : 65 b/s
Count of elements                        : 1501
Stream size                              : 56.4 KiB (0%)
Title                                    : SDH
Language                                 : English
Default                                  : No
Forced                                   : No

Text #4
ID                                       : 6
Format                                   : UTF-8
Codec ID                                 : S_TEXT/UTF8
Codec ID/Info                            : UTF-8 Plain Text
Duration                                 : 1 h 55 min
Bit rate                                 : 58 b/s
Count of elements                        : 1313
Stream size                              : 49.3 KiB (0%)
Language                                 : Spanish
Default                                  : No
Forced                                   : No

Text #5
ID                                       : 7
Format                                   : UTF-8
Codec ID                                 : S_TEXT/UTF8
Codec ID/Info                            : UTF-8 Plain Text
Duration                                 : 1 h 58 min
Bit rate                                 : 39 b/s
Count of elements                        : 1182
Stream size                              : 33.8 KiB (0%)
Language                                 : Dutch
Default                                  : No
Forced                                   : No



                                                                                                                                                                                                        
                                                                                                                                                                                                                                                                                                                                                                                                                                                                                                                                                                                                                                                                                                                                                                                                                                                      
9a65236dedccf92f09adaa3b1e0950bc.torrent (74.64 KB, 下载次数: 8)

回复

使用道具 举报

小黑屋|磁力链接吧 |网站地图

本网站所有资源来自网络,如无意中侵犯了您的权益,请发邮件至 [email protected],立即清除相关链接

GMT+8, 2020-2-28 11:01 , Processed in 0.072365 second(s), 23 queries .

Powered by Discuz! X3.2

© 2001-2013 Comsenz Inc.

快速回复 返回顶部 返回列表