磁力链接吧

 找回密码
 立即注册
搜索

邻里的人们 The.Villagers.2018.KOREAN.1080p.BluRay.x264.DD5.1-WiKi 8.11GB

[复制链接]
百度云资源 发表于 2020-2-3 17:24:52 | 显示全部楼层 |阅读模式
帖子完整标题:邻里的人们 The.Villagers.2018.KOREAN.1080p.BluRay.x264.DD5.1-WiKi 8.11GB




◎译  名 邻里的人们 / Ordinary People / The Villagers / 乡亲们 / 呆货 / 恶邻布局(台) / ???
◎片  名 ?????
◎年  代 2018
◎产  地 韩国
◎类  别 动作 / 悬疑
◎语  言 韩语
◎上映日期 2018-11-07(韩国)
◎IMDb评分  5.8/10 from 193 users
◎导  演 林镇秀 Jin-soon Lim
◎主  演 马东锡 Tong-Seok Ma
       金赛纶 Sae-ron Kim
       李相烨 Sang-Yeob Lee
       陈善圭 Jin Sun-kyu
       张光 Gwang Jang
       申世辉 Shin Se-hwi
       吴熙俊 Hee-joon Oh
       裴真雅 Jin-ah Bae


◎标  签 韩国 | 犯罪 | 悬疑 | 动作 | 校园 | 社会 | 剧情 | 人性

◎简  介  

  基哲(马东石饰演)被调派到乡下高中担任体育老师并兼任训导主任,不过,基哲一到学校便立刻觉得事有蹊跷,不仅学校职员散发出一股诡谲的气氛,镇上居民也好像隐藏着什么不可告人的秘密。某日,一名女学生失踪了,但大家却默不吭声,仿佛事情从未发生过,只有女学生的朋友宥贞(金赛纶饰),坚信好友遭人绑架,不放弃追查。 女学生消失的证据,正在一点点被抹去,基哲和宥贞这对师生,该如何找出事件背后的骇人真相,救出失踪女学生呢?
Video
ID                                       : 1
Format                                   : AVC
Format/Info                              : Advanced Video Codec
Format settings                          : CABAC / 5 Ref Frames
Format settings, CABAC                   : Yes
Format settings, Reference frames        : 5 frames
Codec ID                                 : V_MPEG4/ISO/AVC
Duration                                 : 1 h 39 min
Bit rate                                 : 11.0 Mb/s
Width                                    : 1 920 pixels
Height                                   : 804 pixels
Display aspect ratio                     : 2.40:1
Frame rate mode                          : Constant
Frame rate                               : 23.976 (24000/1001) FPS
Color space                              : YUV
Chroma subsampling                       : 4:2:0
Bit depth                                : 8 bits
Scan type                                : Progressive
Bits/(Pixel*Frame)                       : 0.297
Stream size                              : 7.63 GiB (94%)
Writing library                          : x264 core 130 r2273 b3065e6
Encoding settings                        : cabac=1 / ref=5 / deblock=1:-3:-3 / analyse=0x3:0x113 / me=umh / subme=11 / psy=1 / psy_rd=1.00:0.00 / mixed_ref=1 / me_range=32 / chroma_me=1 / trellis=2 / 8x8dct=1 / cqm=0 / deadzone=21,11 / fast_pskip=0 / chroma_qp_offset=-4 / threads=12 / lookahead_threads=2 / sliced_threads=0 / nr=0 / decimate=0 / interlaced=0 / bluray_compat=0 / constrained_intra=0 / bframes=8 / b_pyramid=2 / b_adapt=2 / b_bias=0 / direct=3 / weightb=1 / open_gop=0 / weightp=2 / keyint=250 / keyint_min=23 / scenecut=40 / intra_refresh=0 / rc=2pass / mbtree=0 / bitrate=11000 / ratetol=1.0 / qcomp=0.60 / qpmin=0 / qpmax=69 / qpstep=4 / cplxblur=20.0 / qblur=0.5 / ip_ratio=1.40 / pb_ratio=1.30 / aq=1:0.85
Language                                 : English
Default                                  : Yes
Forced                                   : No

Audio
ID                                       : 2
Format                                   : AC-3
Format/Info                              : Audio Coding 3
Commercial name                          : Dolby Digital
Codec ID                                 : A_AC3
Duration                                 : 1 h 39 min
Bit rate mode                            : Constant
Bit rate                                 : 640 kb/s
Channel(s)                               : 6 channels
Channel layout                           : L R C LFE Ls Rs
Sampling rate                            : 48.0 kHz
Frame rate                               : 31.250 FPS (1536 SPF)
Bit depth                                : 16 bits
Compression mode                         : Lossy
Stream size                              : 455 MiB (5%)
Title                                    : 韩语
Language                                 : Korean
Service kind                             : Complete Main
Default                                  : Yes
Forced                                   : No

Text #1
ID                                       : 3
Format                                   : ASS
Codec ID                                 : S_TEXT/ASS
Codec ID/Info                            : Advanced Sub Station Alpha
Duration                                 : 1 h 32 min
Bit rate                                 : 150 b/s
Count of elements                        : 1116
Compression mode                         : Lossless
Stream size                              : 102 KiB (0%)
Title                                    : chs
Language                                 : Chinese
Default                                  : Yes
Forced                                   : No

Text #2
ID                                       : 4
Format                                   : UTF-8
Codec ID                                 : S_TEXT/UTF8
Codec ID/Info                            : UTF-8 Plain Text
Duration                                 : 1 h 35 min
Bit rate                                 : 54 b/s
Count of elements                        : 1218
Stream size                              : 37.9 KiB (0%)
Language                                 : English
Default                                  : No
Forced                                   : Yes



                                                                                                                                                                                                        
                                                                                                                                                                                                                                                                                                                                                                                                                                                                                                                                                                                                                                                                                                                                                                                                                                                      
a6696d5365a8580d19430f4e23cccd52.torrent (41.1 KB, 下载次数: 9)

回复

使用道具 举报

小黑屋|磁力链接吧 |网站地图

本网站所有资源来自网络,如无意中侵犯了您的权益,请发邮件至 [email protected],立即清除相关链接

GMT+8, 2020-2-20 07:04 , Processed in 0.071334 second(s), 23 queries .

Powered by Discuz! X3.2

© 2001-2013 Comsenz Inc.

快速回复 返回顶部 返回列表