磁力链接吧

 找回密码
 立即注册
搜索

小Q Little.Q.2019.CHINESE.1080p.BluRay.x264.DD5.1-PTer 10.41GB

[复制链接]
百度云资源 发表于 2020-2-3 17:24:52 | 显示全部楼层 |阅读模式
子完整标题:小Q Little.Q.2019.CHINESE.1080p.BluRay.x264.DD5.1-PTer 10.41GB




◎译  名 Little Q
◎片  名 小Q
◎年  代 2019
◎产  地 中国大陆 / 中国香港
◎类  别 剧情
◎语  言 汉语普通话 / 粤语
◎上映日期 2019-08-15(中国香港) / 2019-09-20(中国大陆)
◎IMDb评分  6.3/10 from 77 users
◎导  演 罗永昌 Wing-cheong Law
◎编  剧 陈淑贤 Susan Chan
◎主  演 任达华 Simon Yam
       梁咏琪 Gigi Leung
       罗仲谦 Chung Him Law
       杨采妮 Charlie Yeung
       袁姗姗 Shanshan Yuan
       袁澧林 Angela Yuen
       刘楚恬 Chutian Liu
       林文龙 Frankie Lam
       郭晋安 Roger Kwok
       胡明 Ming Hu
       余佳哝
       陈雅丽 Allie Chan
       贾晓晨 J.J. Jia
       鲁牛 Niu Lu
       刘永 Anthony Liu


◎标  签 治愈 | 温情 | 感动 | 宠物 | 动物 | 导盲犬 | 香港 | 剧情

◎简  介  

  本片讲述了聪明可爱的小Q在训练师悉心照料和训练过程中成长为一只合格的导盲犬,并遇到了主人李宝庭(任达华饰)——中年失明、孤僻又坏脾气的天才糕点师。他们共同生活的日子里,小Q逐渐融化并走入了宝庭的心里,温情的陪伴令处于低谷期的宝庭有了新 生活,一人一犬,深深的羁绊,他们谁也无法再失去彼此。
Video
ID                                       : 1
Format                                   : AVC
Format/Info                              : Advanced Video Codec
Format settings                          : CABAC / 5 Ref Frames
Format settings, CABAC                   : Yes
Format settings, Reference frames        : 5 frames
Codec ID                                 : V_MPEG4/ISO/AVC
Duration                                 : 1 h 46 min
Bit rate                                 : 13.3 Mb/s
Width                                    : 1 920 pixels
Height                                   : 804 pixels
Display aspect ratio                     : 2.40:1
Frame rate mode                          : Constant
Frame rate                               : 24.000 FPS
Color space                              : YUV
Chroma subsampling                       : 4:2:0
Bit depth                                : 8 bits
Scan type                                : Progressive
Bits/(Pixel*Frame)                       : 0.359
Stream size                              : 9.93 GiB (95%)
Writing library                          : x264 core 158 r2984 3759fcb
Encoding settings                        : cabac=1 / ref=5 / deblock=1:-3:-3 / analyse=0x3:0x133 / me=umh / subme=11 / psy=1 / psy_rd=1.02:0.00 / mixed_ref=1 / me_range=32 / chroma_me=1 / trellis=2 / 8x8dct=1 / cqm=0 / deadzone=21,11 / fast_pskip=0 / chroma_qp_offset=-2 / threads=25 / lookahead_threads=4 / sliced_threads=0 / nr=0 / decimate=0 / interlaced=0 / bluray_compat=0 / constrained_intra=0 / bframes=7 / b_pyramid=2 / b_adapt=2 / b_bias=0 / direct=3 / weightb=1 / open_gop=0 / weightp=2 / keyint=250 / keyint_min=24 / scenecut=40 / intra_refresh=0 / rc_lookahead=250 / rc=crf / mbtree=0 / crf=16.5 / qcomp=0.60 / qpmin=0 / qpmax=69 / qpstep=4 / vbv_maxrate=62500 / vbv_bufsize=78125 / crf_max=0.0 / nal_hrd=none / filler=0 / ip_ratio=1.30 / pb_ratio=1.20 / aq=3:0.80
Language                                 : English
Default                                  : Yes
Forced                                   : No
Color range                              : Limited
Color primaries                          : BT.709
Matrix coefficients                      : BT.709

Audio
ID                                       : 2
Format                                   : AC-3
Format/Info                              : Audio Coding 3
Commercial name                          : Dolby Digital
Codec ID                                 : A_AC3
Duration                                 : 1 h 46 min
Bit rate mode                            : Constant
Bit rate                                 : 640 kb/s
Channel(s)                               : 6 channels
Channel layout                           : L R C LFE Ls Rs
Sampling rate                            : 48.0 kHz
Frame rate                               : 31.250 FPS (1536 SPF)
Bit depth                                : 16 bits
Compression mode                         : Lossy
Stream size                              : 489 MiB (5%)
Title                                    : Mandarin
Language                                 : Chinese
Service kind                             : Complete Main
Default                                  : Yes
Forced                                   : No

Text
ID                                       : 3
Format                                   : UTF-8
Codec ID                                 : S_TEXT/UTF8
Codec ID/Info                            : UTF-8 Plain Text
Duration                                 : 1 h 45 min
Bit rate                                 : 40 b/s
Count of elements                        : 1137
Stream size                              : 31.1 KiB (0%)
Language                                 : English
Default                                  : Yes
Forced                                   : No

Menu
00:00:00.000                             : en:Chapter 1
00:04:02.250                             : en:Chapter 2
00:08:18.250                             : en:Chapter 3
00:13:33.208                             : en:Chapter 4
00:19:45.500                             : en:Chapter 5
00:26:41.375                             : en:Chapter 6
00:31:25.625                             : en:Chapter 7
00:35:08.166                             : en:Chapter 8
00:40:35.041                             : en:Chapter 9
00:44:12.791                             : en:Chapter 10
00:48:40.916                             : en:Chapter 11
00:53:04.958                             : en:Chapter 12
00:59:43.708                             : en:Chapter 13
01:06:40.125                             : en:Chapter 14
01:10:23.500                             : en:Chapter 15
01:16:41.416                             : en:Chapter 16
01:23:35.875                             : en:Chapter 17
01:29:02.500                             : en:Chapter 18
01:32:38.500                             : en:Chapter 19
01:38:04.125                             : en:Chapter 20



                                                                                                                                                                                                        
                                                                                                                                                                                                                                                                                                                                                                                                                                                                                                                                                                                                                                                                                                                                                                                                                                                      
d420fa41c5ae001813d0032bc5e955a8.torrent (52.57 KB, 下载次数: 16)

回复

使用道具 举报

小黑屋|磁力链接吧 |网站地图

本网站所有资源来自网络,如无意中侵犯了您的权益,请发邮件至 [email protected],立即清除相关链接

GMT+8, 2020-9-23 08:50 , Processed in 0.110500 second(s), 23 queries .

Powered by Discuz! X3.2

© 2001-2013 Comsenz Inc.

快速回复 返回顶部 返回列表