磁力链接吧

 找回密码
 立即注册
搜索

有熊谷守一在的地方 Mori.The.Artists.Habitat.2018.JAPANESE.1080p.BluR...

[复制链接]
百度云资源 发表于 2020-2-2 17:06:22 | 显示全部楼层 |阅读模式
帖子完整标题:有熊谷守一在的地方 Mori.The.Artists.Habitat.2018.JAPANESE.1080p.BluRay.x264-iKiW 9.00GB




◎译  名 有熊谷守一在的地方 / Mori, The Artist's Habitat / 仙人画家:熊谷守一(台) / 綠野仙師 : 熊谷守一(港)
◎片  名 モリのいる場所
◎年  代 2018
◎产  地 日本
◎类  别 剧情
◎语  言 日语
◎上映日期 2018-04-10(北京电影节) / 2018-05-19(日本)
◎IMDb评分  7.0/10 from 159 users
◎片  长 99分钟
◎导  演 冲田修一 Sh?ichi Okita
◎编  剧 冲田修一 Sh?ichi Okita
◎主  演 山崎努 Tsutomu Yamazaki
       树木希林 Kirin Kiki
       加濑亮 Ryo Kase
       吉村界人 Kaito Yoshimura
       光石研 Ken Mitsuishi
       青木崇高 Munetaka Aoki
       吹越满 Mitsuru Fukikoshi


◎标  签 日本 | 传记 | 艺术 | 2018 | 温情 | 人生 | 文艺 | 剧情

◎简  介  

  在日本美术史上,熊谷守一被认为是野兽主义画家,他出身富裕却过着贫寒生活,获誉“画坛仙人”。影片讲述了熊谷守一30年几乎不出门,在家创作“仙人物语”的故事。山崎努和树木希林两位驰骋日本影坛几十余年的老戏骨演起传记片来游刃有余,名导冲田修一不改温暖本色。

◎获奖情况  

  第43届报知映画赏(2018)
  最佳女配角 树木希林

  第5届豆瓣电影年度榜单(2018)
  评分最高的日本电影(提名)
Video
ID                                       : 1
Format                                   : AVC
Format/Info                              : Advanced Video Codec
Format settings                          : CABAC / 4 Ref Frames
Format settings, CABAC                   : Yes
Format settings, Reference frames        : 4 frames
Codec ID                                 : V_MPEG4/ISO/AVC
Duration                                 : 1 h 39 min
Bit rate                                 : 12.3 Mb/s
Width                                    : 1 920 pixels
Height                                   : 1 036 pixels
Display aspect ratio                     : 1.85:1
Frame rate mode                          : Constant
Frame rate                               : 23.976 (24000/1001) FPS
Color space                              : YUV
Chroma subsampling                       : 4:2:0
Bit depth                                : 8 bits
Scan type                                : Progressive
Bits/(Pixel*Frame)                       : 0.258
Stream size                              : 8.55 GiB (95%)
Writing library                          : x264 core 129 r2245+704+36 8e61944 tMod+MixAQ [1:2:0 X86_64]
Encoding settings                        : cabac=1 / ref=4 / deblock=1:-3:-3 / analyse=0x3:0x133 / me=umh / subme=11 / psy=1 / fade_compensate=0.00 / psy_rd=1.05:0.10 / mixed_ref=1 / me_range=64 / chroma_me=1 / trellis=2 / 8x8dct=1 / cqm=0 / deadzone=21,11 / fast_pskip=0 / chroma_qp_offset=-3 / threads=18 / lookahead_threads=3 / sliced_threads=0 / nr=0 / decimate=0 / interlaced=0 / bluray_compat=0 / constrained_intra=0 / fgo=0 / bframes=10 / b_pyramid=2 / b_adapt=2 / b_bias=0 / direct=3 / weightb=1 / open_gop=0 / weightp=2 / keyint=250 / keyint_min=23 / scenecut=40 / intra_refresh=0 / rc=2pass / mbtree=0 / bitrate=12322 / ratetol=1.0 / qcomp=0.70 / qpmin=0 / qpmax=69 / qpstep=4 / cplxblur=20.0 / qblur=0.5 / ip_ratio=1.40 / pb_ratio=1.30 / aq=1 / aq-strength=0.90 / aq-sensitivity=10.00 / aq-ifactor=1.00 / aq-pfactor=1.00 / aq-bfactor=1.00 / aq2=0
Language                                 : Japanese
Default                                  : Yes
Forced                                   : No

Audio
ID                                       : 2
Format                                   : AC-3
Format/Info                              : Audio Coding 3
Commercial name                          : Dolby Digital
Codec ID                                 : A_AC3
Duration                                 : 1 h 39 min
Bit rate mode                            : Constant
Bit rate                                 : 640 kb/s
Channel(s)                               : 6 channels
Channel layout                           : L R C LFE Ls Rs
Sampling rate                            : 48.0 kHz
Frame rate                               : 31.250 FPS (1536 SPF)
Bit depth                                : 16 bits
Compression mode                         : Lossy
Stream size                              : 455 MiB (5%)
Language                                 : Japanese
Service kind                             : Complete Main
Default                                  : Yes
Forced                                   : No

Text #1
ID                                       : 3
Format                                   : UTF-8
Codec ID                                 : S_TEXT/UTF8
Codec ID/Info                            : UTF-8 Plain Text
Duration                                 : 1 h 38 min
Bit rate                                 : 22 b/s
Count of elements                        : 740
Stream size                              : 15.9 KiB (0%)
Language                                 : English
Default                                  : Yes
Forced                                   : No

Text #2
ID                                       : 4
Format                                   : ASS
Codec ID                                 : S_TEXT/ASS
Codec ID/Info                            : Advanced Sub Station Alpha
Duration                                 : 1 h 34 min
Bit rate                                 : 56 b/s
Count of elements                        : 799
Compression mode                         : Lossless
Stream size                              : 39.6 KiB (0%)
Default                                  : No
Forced                                   : No

Menu
00:00:00.000                             : en:00:00:00.000
00:09:55.970                             : en:00:09:55.970
00:21:06.431                             : en:00:21:06.431
00:29:05.577                             : en:00:29:05.577
00:36:03.202                             : en:00:36:03.202
00:42:43.727                             : en:00:42:43.727
00:48:30.908                             : en:00:48:30.908
00:54:32.185                             : en:00:54:32.185
01:01:52.500                             : en:01:01:52.500
01:06:54.844                             : en:01:06:54.844
01:12:03.819                             : en:01:12:03.819
01:17:10.959                             : en:01:17:10.959
01:25:14.776                             : en:01:25:14.776
01:31:24.520                             : en:01:31:24.520
01:39:07.191                             : en:01:39:07.191



                                                                                                                                                                                                        
                                                                                                                                                                                                                                                                                                                                                                                                                                                                                                                                                                                                                                                                                                                                                                                                                                                      
86c0be7d487ee38dc86cd97a5f785d71.torrent (45.54 KB, 下载次数: 11)

回复

使用道具 举报

小黑屋|磁力链接吧 |网站地图

本网站所有资源来自网络,如无意中侵犯了您的权益,请发邮件至 [email protected],立即清除相关链接

GMT+8, 2020-9-23 06:39 , Processed in 0.131186 second(s), 23 queries .

Powered by Discuz! X3.2

© 2001-2013 Comsenz Inc.

快速回复 返回顶部 返回列表