磁力链接吧

 找回密码
 立即注册
搜索

独闯东柏林/鬼馬靚仔俏特務(港) Gotcha.1985.720p.BluRay.x264-R...

[复制链接]
百度云资源 发表于 2020-2-2 16:35:55 | 显示全部楼层 |阅读模式
帖子完整标题:独闯东柏林/鬼馬靚仔俏特務(港) Gotcha.1985.720p.BluRay.x264-RUSTED 4.37GB




◎译  名 独闯东柏林 / 鬼馬靚仔俏特務(港)
◎片  名 Gotcha!
◎年  代 1985
◎产  地 美国
◎类  别 喜剧 / 动作 / 爱情 / 悬疑
◎语  言 英语 / 德语 / 俄语 / 法语
◎上映日期 1985-05-03
◎IMDb评分  6.2/10 from 6445 users
◎片  长 101 分钟
◎导  演 杰夫·卡纽 Jeff Kanew
◎编  剧 Paul G. Hensler / 丹·戈登 Dan Gordon
◎主  演 安东尼·爱德华兹 Anthony Edwards
       琳达·费奥伦蒂诺 Linda Fiorentino
       贾苏·加西亚 Jsu Garcia
       阿历克斯·罗克 Alex Rocco
       玛拉·亚当斯 Marla Adams
       克劳斯·洛维奇 Klaus L?witsch
       克里斯多夫·莱德尔 Christopher Rydell
       Christie Claridge
       Brad Cowgill
       Kari Lizer
       大卫·沃尔 David Wohl
       Irene Olga López
       Bernard Spiegel
       Muriel Dubrule
       Tiina Maria
       弗朗西斯·勒迈尔 Francis Lemaire
       马克西米利安·露丝莱恩 Maximilian Rüthlein
       Ronald Nitschke
       达·范·汉森德 Dan van Husen
       Manfred Tümmler
       Dragomir Stanojevic-Bata Kameni
       Dante Di Loreto
       Larry Charles White
       史蒂夫·艾斯汀 Steve Eastin
       Ruben Guevara
       Peter Pan
       吉恩·拉贝尔 Gene LeBell
       鲍勃·耶基斯 Bob Yerkes
       乔治·费舍尔 George Fisher


◎标  签 美国 | 1985 | 柏林 | 德国 | 喜剧 | 青春 | 琳达·费奥伦蒂诺 | 爱情

◎简  介  

  UCLA college student Jonathan Moore (Anthony Edwards) is playing a game called "Gotcha" (popular on mid-1980s college campuses as "Assassin" or "Tag"), wherein the players are all assigned a mock "hit" on another player by use of a harmless paintball gun. Moore and his apartment roommate Manolo go on a vacation to Paris, France. After touring some of Paris, in a cafe Moore meets Sasha Banicek (Linda Fiorentino), a Czechoslovakian girl. Eventually, Jonathan has intercourse with Sasha, losing his virginity.
  Jonathan decides to leave Manolo (who is heading to Spain) and go with Sasha to West Berlin to spend more time with her. Jonathan believes that he is in love with Sasha. There, Jonathan and Sasha continue to have sex and even go to an Oktoberfest beer gathering. One night, Sasha tells Jonathan that she has to go to East Berlin to pick up a package. One night after arriving in East Berlin, Sasha leaves their hotel room and walks to dark street corner. There, Sasha meets a German man who tells her the location of the pickup of her package. Meanwhile, Sasha was being monitored by a Soviet agent, who was sitting in a car at a distance. During the day, Sasha tells Jonathan that if she gives him a certain message, it means that he has to leave East Berlin immediately. At a cafe, Sasha gives Jonathan a package and says that a strudel is inside. A little later, Sasha tells Jonathan to meet her at the butcher shop near their hotel. All of a sudden, a Soviet agent begins to chase after Sasha. Sasha decides to use Jonathan (who is holding her package) to unknowingly get the package over to West Berlin. Meanwhile, Sasha is taken by the Soviet agent and East German secret police.
  Jonathan goes to Checkpoint Charlie to cross the heavily fortified border into West Berlin. At the East German customs search, Jonathan is stripped of his clothes and given a cavity search. Meanwhile, Sasha is stripped and searched for possible espionage evidence. Vlad arrives at the border crossing to search for Jonathan, however Jonathan passes the border safely before he can be captured. Once in West Berlin, Jonathan feels liberated by the Westernized society. In the hotel, Jonathan receives a message from Sasha to meet him at a specified location. Jonathan finds out that his hotel room was broken into and robbed of his traveler's checks. Soviet agents eventually find Jonathan in West Berlin and chase him throughout a public park. Jonathan jumps into a water canal and manages to escape from the Soviets and stumbles upon a German rock group headed for Hamburg, who offer him a ride to the airport.
  The rock group successfully get Jonathan to the airport (using full-face makeup to sneak him past a checkpoint) and Jonathan finally arrives in Los Angeles Tom Bradley International Airport and to his apartment. Soon, Vlad and a band of Soviet agents arrive too in Los Angeles. Once home, Jonathan stumbles upon a film canister, which was planted by Sasha. Jonathan visits his parents and tells them what happened in Germany but they cannot believe a word of it and think Jonathan is on drugs. Jonathan decides to call the FBI then the Central Intelligence Agency for help. Jonathan returns to find his apartment broken into and looted.
  The CIA officer tells Jonathan to give them the photo film canister. At the Los Angeles headquarters of the CIA, Jonathan spots Sasha who looks like she was working there. Jonathan eventually meets up with Sasha. Sasha admits that she is Cheryl Brewster, a CIA agent, originally from Pittsburgh. Out of nowhere, Vlad and his gang begin to chase Jonathan and Cheryl on the UCLA campus. Jonathan eliminates all the Soviets with a tranquilizer gun which he gets from the campus veterinary sciences building. The Soviets are arrested, the CIA agents thank Jonathan for his (indirect) help in obtaining the film, and Sasha tells him she wants to continue their relationship.
  After they part, Jonathan talks to a pretty student who rebuffs him coldly. As she walks away, he aims the tranquilizer pistol and shoots her in the rear.
Video
ID                                       : 1
Format                                   : AVC
Format/Info                              : Advanced Video Codec
Format settings                          : CABAC / 5 Ref Frames
Format settings, CABAC                   : Yes
Format settings, Reference frames        : 5 frames
Codec ID                                 : V_MPEG4/ISO/AVC
Duration                                 : 1 h 40 min
Bit rate                                 : 5 433 kb/s
Width                                    : 1 280 pixels
Height                                   : 696 pixels
Display aspect ratio                     : 1.85:1
Frame rate mode                          : Constant
Frame rate                               : 23.976 (24000/1001) FPS
Color space                              : YUV
Chroma subsampling                       : 4:2:0
Bit depth                                : 8 bits
Scan type                                : Progressive
Bits/(Pixel*Frame)                       : 0.254
Stream size                              : 3.82 GiB (88%)
Writing library                          : x264 core 159 r2991 1771b55
Encoding settings                        : cabac=1 / ref=5 / deblock=1:1:1 / analyse=0x3:0x133 / me=umh / subme=8 / psy=1 / psy_rd=1.00:0.00 / mixed_ref=1 / me_range=16 / chroma_me=1 / trellis=1 / 8x8dct=1 / cqm=0 / deadzone=21,11 / fast_pskip=0 / chroma_qp_offset=-2 / threads=16 / lookahead_threads=2 / sliced_threads=0 / nr=0 / decimate=1 / interlaced=0 / bluray_compat=0 / constrained_intra=0 / bframes=3 / b_pyramid=2 / b_adapt=2 / b_bias=0 / direct=3 / weightb=1 / open_gop=0 / weightp=2 / keyint=250 / keyint_min=23 / scenecut=40 / intra_refresh=0 / rc_lookahead=50 / rc=2pass / mbtree=1 / bitrate=5433 / ratetol=1.0 / qcomp=0.60 / qpmin=0 / qpmax=69 / qpstep=4 / cplxblur=20.0 / qblur=0.5 / ip_ratio=1.40 / aq=1:1.00
Default                                  : Yes
Forced                                   : No

Audio
ID                                       : 2
Format                                   : DTS
Format/Info                              : Digital Theater Systems
Codec ID                                 : A_DTS
Duration                                 : 1 h 40 min
Bit rate mode                            : Constant
Bit rate                                 : 768 kb/s
Channel(s)                               : 2 channels
Channel layout                           : Lt Rt
Sampling rate                            : 48.0 kHz
Frame rate                               : 93.750 FPS (512 SPF)
Bit depth                                : 24 bits
Compression mode                         : Lossy
Stream size                              : 554 MiB (12%)
Language                                 : German
Default                                  : Yes
Forced                                   : No

Menu
00:00:00.000                             : en:00:00:00.000
00:08:52.949                             : en:00:08:52.949
00:24:30.511                             : en:00:24:30.511
00:38:52.539                             : en:00:38:52.539
00:55:29.701                             : en:00:55:29.701
01:16:46.769                             : en:01:16:46.769
01:26:31.686                             : en:01:26:31.686
01:32:36.676                             : en:01:32:36.676
01:37:43.858                             : en:01:37:43.858



                                                                                                                                                                                                        
                                                                                                                                                                                                                                                                                                                                                                                                                                                                                                                                                                                                                                                                                                                                                                                                                                                      
c00dbfbda288696bb66f6a7947f194c9.torrent (44.27 KB, 下载次数: 19)

回复

使用道具 举报

小黑屋|磁力链接吧 |网站地图

本网站所有资源来自网络,如无意中侵犯了您的权益,请发邮件至 [email protected],立即清除相关链接

GMT+8, 2020-9-27 09:16 , Processed in 0.115336 second(s), 23 queries .

Powered by Discuz! X3.2

© 2001-2013 Comsenz Inc.

快速回复 返回顶部 返回列表