磁力链接吧

 找回密码
 立即注册
搜索

小丑/惊魂小丑屋 Clown.2019.UNCUT.1080p.BluRay.x264-GETiT 5.46GB

[复制链接]
百度云资源 发表于 2020-2-1 16:50:54 | 显示全部楼层 |阅读模式
帖子完整标题:小丑/惊魂小丑屋 Clown.2019.UNCUT.1080p.BluRay.x264-GETiT 5.46GB




◎译  名 小丑 / 惊魂小丑屋
◎片  名 Clown
◎年  代 2019
◎产  地 美国
◎类  别 恐怖
◎语  言 英语
◎上映日期 2019-08-29(美国)
◎IMDb评分  2.8/10 from 83 users
◎导  演 Eric Forsberg
◎编  剧 Eric Forsberg
◎主  演 Kasia Szarek
       Micavrie Amaia
       Drew Hale
       Adam Elshar
       Marqus Bobesich
       Audrey Gibbs
       Camille Wormser
       Sam Lazarus
       Dave Klec
       Taylor Watson Seupel
       Christopher Shone
       James Jovanovich
       Nicholas Shone
       Joyce Tatler
       Tayvion Power


◎标  签 烂片 | 盗版小丑 | 垃圾 | 差 | 恐怖 | 美国 | 恐怖惊悚悬疑重口血腥 | 2019

◎简  介  

  A group of teens fights for their lives as they find themselves trapped in a fun-house, stalked by a killer clown who won\'t rest until every last one of them is dead.
Video
ID                                       : 1
Format                                   : AVC
Format/Info                              : Advanced Video Codec
Format settings                          : CABAC / 5 Ref Frames
Format settings, CABAC                   : Yes
Format settings, Reference frames        : 5 frames
Codec ID                                 : V_MPEG4/ISO/AVC
Duration                                 : 1 h 27 min
Bit rate                                 : 8 199 kb/s
Width                                    : 1 920 pixels
Height                                   : 808 pixels
Display aspect ratio                     : 2.40:1
Frame rate mode                          : Constant
Frame rate                               : 23.976 (24000/1001) FPS
Color space                              : YUV
Chroma subsampling                       : 4:2:0
Bit depth                                : 8 bits
Scan type                                : Progressive
Bits/(Pixel*Frame)                       : 0.220
Stream size                              : 4.99 GiB (91%)
Writing library                          : x264 core 158 r2988 7817004
Encoding settings                        : cabac=1 / ref=5 / deblock=1:0:0 / analyse=0x3:0x133 / me=umh / subme=7 / psy=1 / psy_rd=1.00:0.00 / mixed_ref=1 / me_range=16 / chroma_me=1 / trellis=2 / 8x8dct=1 / cqm=0 / deadzone=21,11 / fast_pskip=0 / chroma_qp_offset=-2 / threads=16 / lookahead_threads=2 / sliced_threads=0 / nr=0 / decimate=1 / interlaced=0 / bluray_compat=0 / constrained_intra=0 / bframes=3 / b_pyramid=2 / b_adapt=1 / b_bias=0 / direct=3 / weightb=1 / open_gop=0 / weightp=2 / keyint=250 / keyint_min=23 / scenecut=40 / intra_refresh=0 / rc_lookahead=50 / rc=2pass / mbtree=1 / bitrate=8199 / ratetol=1.0 / qcomp=0.60 / qpmin=0 / qpmax=69 / qpstep=4 / cplxblur=20.0 / qblur=0.5 / ip_ratio=1.40 / aq=1:1.00
Language                                 : English
Default                                  : Yes
Forced                                   : No

Audio
ID                                       : 2
Format                                   : DTS
Format/Info                              : Digital Theater Systems
Codec ID                                 : A_DTS
Duration                                 : 1 h 27 min
Bit rate mode                            : Constant
Bit rate                                 : 768 kb/s
Channel(s)                               : 6 channels
Channel layout                           : C L R Ls Rs LFE
Sampling rate                            : 48.0 kHz
Frame rate                               : 93.750 FPS (512 SPF)
Bit depth                                : 24 bits
Compression mode                         : Lossy
Stream size                              : 479 MiB (9%)
Title                                    : DTS
Language                                 : English
Default                                  : Yes
Forced                                   : No

Menu
00:00:00.000                             : en:00:00:00.000
00:10:49.232                             : en:00:10:49.232
00:20:43.159                             : en:00:20:43.159
00:31:37.479                             : en:00:31:37.479
00:44:15.695                             : en:00:44:15.695
00:56:48.947                             : en:00:56:48.947
01:08:28.980                             : en:01:08:28.980
01:16:29.418                             : en:01:16:29.418
01:22:24.565                             : en:01:22:24.565



                                                                                                                                                                                                        
                                                                                                                                                                                                                                                                                                                                                                                                                                                                                                                                                                                                                                                                                                                                                                                                                                                      
2e77fdc671ebb21b40037c761939e7da.torrent (28.01 KB, 下载次数: 8)

回复

使用道具 举报

小黑屋|磁力链接吧 |网站地图

本网站所有资源来自网络,如无意中侵犯了您的权益,请发邮件至 [email protected],立即清除相关链接

GMT+8, 2020-9-28 01:04 , Processed in 0.122965 second(s), 23 queries .

Powered by Discuz! X3.2

© 2001-2013 Comsenz Inc.

快速回复 返回顶部 返回列表