磁力链接吧

 找回密码
 立即注册
搜索

去年圣诞/去年圣诞节 Last.Christmas.2019.RERiP.1080p.BluRay.x264-GUAC...

[复制链接]
百度云资源 发表于 2020-2-1 16:50:54 | 显示全部楼层 |阅读模式
帖子完整标题:去年圣诞/去年圣诞节 Last.Christmas.2019.RERiP.1080p.BluRay.x264-GUACAMOLE 8.74GB




◎译  名 去年圣诞 / 去年圣诞节(台) / 旧年圣诞好恋嚟(港) / 爱在圣诞
◎片  名 Last Christmas
◎年  代 2019
◎产  地 英国 / 美国
◎类  别 喜剧 / 爱情
◎语  言 英语
◎上映日期 2019-11-08(美国)
◎IMDb评分  6.5/10 from 22778 users
◎片  长 102分钟
◎导  演 保罗·费格 Paul Feig
◎编  剧 艾玛·汤普森 Emma Thompson / 布里尼·金明斯 Bryony Kimmings / 格雷·怀斯 Greg Wise
◎主  演 艾米莉亚·克拉克 Emilia Clarke
       亨利·戈尔丁 Henry Golding
       杨紫琼 Michelle Yeoh
       艾玛·汤普森 Emma Thompson
       丽贝卡·鲁特 Rebecca Root
       莉迪亚·伦纳德 Lydia Leonard
       海伦娜·福尔摩斯 Helena Holmes
       纳西尔·贾玛 Nasir Jama
       彼得·米金特 Peter Mygind
       大卫·穆梅尼 David Mumeni
       里图·阿亚 Ritu Arya
       卡罗尔·斯蒂尔 Karol Steele
       帕蒂·卢波恩 Patti LuPone


◎标  签 爱情 | 英国 | 喜剧 | 圣诞 | 温情 | 2019 | 美国 | Christmas

◎简  介  

  一事无成的凯特(艾米莉亚·克拉克 Emilia Clarke 饰)在伦敦浑浑噩噩地过着日子,她做出的一连串糟糕决定导致厄运总是伴随着鞋子上发出的铃声如影随形地跟随着她,她只能打扮成圣诞老人的小精灵,在一间全年无休的圣诞饰品店当店员。当心地善良的汤姆(亨利·戈尔丁 Henry Golding 饰)闯入了凯特的生活,帮助她克服了许多障碍与难关,一切都似乎美好得有点不真实。伦敦在圣诞佳节期间转变成一座童话般的梦幻王国,这两个看似八竿子打不着的人能否结成良缘?有时候,你得顺其自然、聆听自己内心的声音……并且要拥有强大的信念。
Video
ID                                       : 1
Format                                   : AVC
Format/Info                              : Advanced Video Codec
Format settings                          : CABAC / 4 Ref Frames
Format settings, CABAC                   : Yes
Format settings, Reference frames        : 4 frames
Codec ID                                 : V_MPEG4/ISO/AVC
Duration                                 : 1 h 42 min
Bit rate                                 : 10.6 Mb/s
Width                                    : 1 920 pixels
Height                                   : 960 pixels
Display aspect ratio                     : 2.000
Frame rate mode                          : Constant
Frame rate                               : 23.976 (24000/1001) FPS
Color space                              : YUV
Chroma subsampling                       : 4:2:0
Bit depth                                : 8 bits
Scan type                                : Progressive
Bits/(Pixel*Frame)                       : 0.241
Stream size                              : 7.65 GiB (88%)
Writing library                          : x264 core 159 r2991 1771b55
Encoding settings                        : cabac=1 / ref=4 / deblock=1:0:0 / analyse=0x3:0x113 / me=umh / subme=8 / psy=1 / psy_rd=1.00:0.00 / mixed_ref=1 / me_range=16 / chroma_me=1 / trellis=2 / 8x8dct=1 / cqm=0 / deadzone=21,11 / fast_pskip=0 / chroma_qp_offset=-2 / threads=24 / lookahead_threads=4 / sliced_threads=0 / nr=0 / decimate=1 / interlaced=0 / bluray_compat=0 / constrained_intra=0 / bframes=3 / b_pyramid=2 / b_adapt=1 / b_bias=0 / direct=1 / weightb=1 / open_gop=0 / weightp=2 / keyint=250 / keyint_min=23 / scenecut=40 / intra_refresh=0 / rc_lookahead=50 / rc=2pass / mbtree=1 / bitrate=10648 / ratetol=1.0 / qcomp=0.60 / qpmin=0 / qpmax=69 / qpstep=4 / cplxblur=20.0 / qblur=0.5 / ip_ratio=1.40 / aq=1:1.00
Default                                  : Yes
Forced                                   : No

Audio
ID                                       : 2
Format                                   : DTS
Format/Info                              : Digital Theater Systems
Codec ID                                 : A_DTS
Duration                                 : 1 h 42 min
Bit rate mode                            : Constant
Bit rate                                 : 1 509 kb/s
Channel(s)                               : 6 channels
Channel layout                           : C L R Ls Rs LFE
Sampling rate                            : 48.0 kHz
Frame rate                               : 93.750 FPS (512 SPF)
Bit depth                                : 24 bits
Compression mode                         : Lossy
Stream size                              : 1.08 GiB (12%)
Language                                 : English
Default                                  : No
Forced                                   : No

Menu
00:00:00.000                             : en:00:00:00.000
00:05:48.390                             : en:00:05:48.390
00:10:26.960                             : en:00:10:26.960
00:16:47.340                             : en:00:16:47.340
00:23:20.941                             : en:00:23:20.941
00:26:15.657                             : en:00:26:15.657
00:29:39.236                             : en:00:29:39.236
00:36:00.367                             : en:00:36:00.367
00:40:51.991                             : en:00:40:51.991
00:45:31.312                             : en:00:45:31.312
00:49:55.618                             : en:00:49:55.618
00:52:26.769                             : en:00:52:26.769
00:58:10.821                             : en:00:58:10.821
01:05:48.444                             : en:01:05:48.444
01:10:31.185                             : en:01:10:31.185
01:13:50.593                             : en:01:13:50.593
01:19:31.225                             : en:01:19:31.225
01:24:23.600                             : en:01:24:23.600
01:30:42.812                             : en:01:30:42.812
01:37:41.731                             : en:01:37:41.731



                                                                                                                                                                                                        
                                                                                                                                                                                                                                                                                                                                                                                                                                                                                                                                                                                                                                                                                                                                                                                                                                                      
a67d02f98287dd41ae77e2ddc44f17ce.torrent (44.55 KB, 下载次数: 8)

回复

使用道具 举报

小黑屋|磁力链接吧 |网站地图

本网站所有资源来自网络,如无意中侵犯了您的权益,请发邮件至 [email protected],立即清除相关链接

GMT+8, 2020-9-23 07:31 , Processed in 0.112080 second(s), 23 queries .

Powered by Discuz! X3.2

© 2001-2013 Comsenz Inc.

快速回复 返回顶部 返回列表