磁力链接吧

 找回密码
 立即注册
搜索

虎胆杀机/创伤中心 Trauma.Center.2019.1080p.BluRay.x264.DTS-HD.MA.5.1-...

[复制链接]
百度云资源 发表于 2020-2-1 16:50:54 | 显示全部楼层 |阅读模式
帖子完整标题:虎胆杀机/创伤中心 Trauma.Center.2019.1080p.BluRay.x264.DTS-HD.MA.5.1-FGT 7.67GB




◎译  名 虎胆杀机 / 创伤中心
◎片  名 Trauma Center
◎年  代 2019
◎产  地 美国
◎类  别 动作 / 惊悚
◎语  言 英语 / 西班牙语
◎上映日期 2019-12-06(美国)
◎片  长 87分钟
◎导  演 马特·伊斯坎达里 Matt Eskandari
◎编  剧 Paul Da Silva
◎主  演 布鲁斯·威利斯 Bruce Willis
       妮基·韦兰 Nicky Whelan
       斯蒂夫·古根伯格 Steve Guttenberg
       蒂托·奥蒂兹 Tito Ortiz
       特夏斯·巴特尔 Texas Battle
       罗曼·米蒂齐扬 Roman Mitichyan
       泰勒·乔恩·奥尔森 Tyler Jon Olson
       让·皮埃尔·普拉茨 Jean Pierre Prats
       Heather Johansen
       Lynn Gilmartin
       David B. Meadows
       Catherine Davis
       Sergio Rizzuto
       Jesse Pruett
       Carroll 'Pinky' Duwart III
       Jaime Irizarry


◎标  签 动作 | 犯罪 | 布鲁斯威利斯 | 美国 | 烂片 | 2019 | 惊悚 | 悬疑

◎简  介  

  一伙悍匪趁夜袭击了一名年轻女子所在的医院来寻找他们的犯罪证据——残留在女子腿部的一颗子弹。一位受命保护女子的老警察成了此时女子免遭杀害的唯一希望。
Video
ID                                       : 1
Format                                   : AVC
Format settings                          : CABAC / 5 Ref Frames
Format settings, CABAC                   : Yes
Format settings, Reference frames        : 5 frames
Codec ID                                 : V_MPEG4/ISO/AVC
Duration                                 : 1 h 27 min
Bit rate                                 : 9 286 kb/s
Width                                    : 1 920 pixels
Height                                   : 808 pixels
Display aspect ratio                     : 2.40:1
Frame rate mode                          : Constant
Frame rate                               : 23.976 (24000/1001) FPS
Color space                              : YUV
Chroma subsampling                       : 4:2:0
Bit depth                                : 8 bits
Scan type                                : Progressive
Bits/(Pixel*Frame)                       : 0.250
Stream size                              : 5.64 GiB (73%)
Title                                    : Trauma.Center.2019.1080p.BluRay.x264.DTS-HD.MA.5.1-FGT
Writing library                          : x264 core 159 r2991 1771b55
Encoding settings                        : cabac=1 / ref=5 / deblock=1:-3:-3 / analyse=0x3:0x133 / me=umh / subme=7 / psy=1 / psy_rd=1.00:0.00 / mixed_ref=1 / me_range=16 / chroma_me=1 / trellis=2 / 8x8dct=1 / cqm=0 / deadzone=21,11 / fast_pskip=1 / chroma_qp_offset=-2 / threads=16 / lookahead_threads=2 / sliced_threads=0 / nr=0 / decimate=1 / interlaced=0 / bluray_compat=0 / constrained_intra=0 / bframes=3 / b_pyramid=2 / b_adapt=2 / b_bias=0 / direct=3 / weightb=1 / open_gop=0 / weightp=2 / keyint=250 / keyint_min=23 / scenecut=40 / intra_refresh=0 / rc_lookahead=50 / rc=2pass / mbtree=1 / bitrate=9286 / ratetol=1.0 / qcomp=0.60 / qpmin=0 / qpmax=69 / qpstep=4 / cplxblur=20.0 / qblur=0.5 / ip_ratio=1.40 / aq=1:1.00
Language                                 : English
Default                                  : Yes
Forced                                   : No
Color range                              : Limited
Matrix coefficients                      : BT.709

Audio
ID                                       : 2
Format                                   : DTS XLL
Format/Info                              : Digital Theater Systems
Commercial name                          : DTS-HD Master Audio
Codec ID                                 : A_DTS
Duration                                 : 1 h 27 min
Bit rate mode                            : Variable
Bit rate                                 : 3 322 kb/s
Channel(s)                               : 6 channels
Channel layout                           : C L R Ls Rs LFE
Sampling rate                            : 48.0 kHz
Frame rate                               : 93.750 FPS (512 SPF)
Bit depth                                : 24 bits
Compression mode                         : Lossless
Stream size                              : 2.02 GiB (26%)
Title                                    : Trauma.Center.2019.1080p.BluRay.x264.DTS-HD.MA.5.1-FGT
Language                                 : English
Default                                  : Yes
Forced                                   : No

Text #1
ID                                       : 3
Format                                   : UTF-8
Codec ID                                 : S_TEXT/UTF8
Codec ID/Info                            : UTF-8 Plain Text
Duration                                 : 1 h 19 min
Bit rate                                 : 39 b/s
Count of elements                        : 748
Stream size                              : 22.7 KiB (0%)
Title                                    : English-SRT
Language                                 : English
Default                                  : Yes
Forced                                   : No

Text #2
ID                                       : 4
Format                                   : PGS
Muxing mode                              : zlib
Codec ID                                 : S_HDMV/PGS
Codec ID/Info                            : Picture based subtitle format used on BDs/HD-DVDs
Duration                                 : 1 h 19 min
Bit rate                                 : 28.0 kb/s
Count of elements                        : 1756
Stream size                              : 15.9 MiB (0%)
Title                                    : English-PGS
Language                                 : English
Default                                  : No
Forced                                   : No

Text #3
ID                                       : 5
Format                                   : PGS
Muxing mode                              : zlib
Codec ID                                 : S_HDMV/PGS
Codec ID/Info                            : Picture based subtitle format used on BDs/HD-DVDs
Duration                                 : 1 h 19 min
Bit rate                                 : 23.1 kb/s
Count of elements                        : 1494
Stream size                              : 13.1 MiB (0%)
Title                                    : Spanish-PGS
Language                                 : Spanish
Default                                  : No
Forced                                   : No

Menu
00:00:00.000                             : en:Chapter 01
00:02:45.999                             : en:Chapter 02
00:08:48.611                             : en:Chapter 03
00:14:10.683                             : en:Chapter 04
00:17:57.409                             : en:Chapter 05
00:22:01.945                             : en:Chapter 06
00:25:46.795                             : en:Chapter 07
00:28:08.895                             : en:Chapter 08
00:35:48.104                             : en:Chapter 09
00:43:25.519                             : en:Chapter 10
00:47:59.585                             : en:Chapter 11
00:51:00.432                             : en:Chapter 12
00:57:30.989                             : en:Chapter 13
01:07:26.250                             : en:Chapter 14
01:12:26.467                             : en:Chapter 15
01:18:04.805                             : en:Chapter 16



                                                                                                                                                                                                        
                                                                                                                                                                                                                                                                                                                                                                                                                                                                                                                                                                                                                                                                                                                                                                                                                                                      
776058abb841c9e8ebd87b1ec4d71816.torrent (38.91 KB, 下载次数: 25)

回复

使用道具 举报

小黑屋|磁力链接吧 |网站地图

本网站所有资源来自网络,如无意中侵犯了您的权益,请发邮件至 [email protected],立即清除相关链接

GMT+8, 2020-9-23 09:09 , Processed in 0.109455 second(s), 23 queries .

Powered by Discuz! X3.2

© 2001-2013 Comsenz Inc.

快速回复 返回顶部 返回列表