磁力链接吧

 找回密码
 立即注册
搜索

浪潮 Waves.2019.720p.BluRay.x264-AAA 5.46GB

[复制链接]
百度云资源 发表于 2020-2-1 16:20:09 | 显示全部楼层 |阅读模式
帖子完整标题:浪潮 Waves.2019.720p.BluRay.x264-AAA 5.46GB




◎译  名 浪潮
◎片  名 Waves
◎年  代 2019
◎产  地 美国
◎类  别 剧情 / 爱情
◎语  言 英语
◎上映日期 2019-08-30(特柳赖德电影节) / 2019-11-15(美国)
◎IMDb评分  7.8/10 from 4377 users
◎片  长 135分钟
◎导  演 特里·爱德华·沙尔茨 Trey Edward Shults
◎编  剧 特里·爱德华·沙尔茨 Trey Edward Shults
◎主  演 卢卡斯·赫奇斯 Lucas Hedges
       斯特林·K·布朗 Sterling K. Brown
       亚历克萨·德米 Alexa Demie
       小克利夫顿·克林斯 Clifton Collins Jr.
       芮妮·戈兹贝里 Renee Goldsberry
       泰勒·拉塞尔 Taylor Russell
       小凯文·哈里森 Kelvin Harrison Jr.
       大卫·加雷利克 David Garelik
       尼尔·哈夫 Neal Huff
       克利夏·费尔柴尔德 Krisha Fairchild
       阿维斯·玛丽·巴尼斯 Avis-Marie Barnes
       Hanna Balicki
       Steve Heinz
       Sidnei Barboza
       Ellen Marguerite Cullivan
       Gene Mack Daniels


◎标  签 美国 | 爱情 | 2019 | 青春 | 音乐 | A24 | 剧情 | 电影

◎简  介  

  卢卡斯·赫奇斯、斯特尔林·K布朗、小凯文·哈里森(《泥土之界》《黑夜造访》)、泰勒·罗素(《忽然七日》《迷失太空》)加盟A24打造的音乐题材新片《浪潮》(Waves),特里·爱德华·沙尔茨(《黑夜造访》《克利夏》)自编自导,下月在佛罗里达州开拍。
  讲述两对年轻情侣在情感的雷区中成长和相爱的故事,被描述为“一部充满戏剧性的歌舞片,有着全新的视角,是一首充满活力、感人肺腑的当代青少年生活的颂歌”。影片几乎全程与音乐同步,将一些标志性的当代歌曲与奥斯卡得主Trent Reznor&Atticus Ross(《社交网络》《龙纹身的女孩》)的原创配乐结合在一起。

◎获奖情况  

  第91届美国国家评论协会奖(2019)
  年度佳片

  第35届美国独立精神奖(2020)
  最佳女配角(提名) 泰勒·拉塞尔

  第29届哥谭独立电影奖(2019)
  最佳影片(提名)
  年度突破演员 泰勒·拉塞尔

  第32届芝加哥影评人协会奖(2019)
  最具潜力演员(提名) 泰勒·拉塞尔

  第4届亚特兰大影评人协会奖(2019)
  突破表演奖 小凯文·哈里森
Video
ID                                       : 1
Format                                   : AVC
Format/Info                              : Advanced Video Codec
Format settings                          : CABAC / 5 Ref Frames
Format settings, CABAC                   : Yes
Format settings, Reference frames        : 5 frames
Codec ID                                 : V_MPEG4/ISO/AVC
Duration                                 : 2 h 15 min
Bit rate                                 : 4 244 kb/s
Width                                    : 1 280 pixels
Height                                   : 696 pixels
Display aspect ratio                     : 1.85:1
Frame rate mode                          : Constant
Frame rate                               : 23.976 (24000/1001) FPS
Color space                              : YUV
Chroma subsampling                       : 4:2:0
Bit depth                                : 8 bits
Scan type                                : Progressive
Bits/(Pixel*Frame)                       : 0.199
Stream size                              : 4.02 GiB (74%)
Title                                    : Waves.2019.720p.BluRay.x264-AAA
Writing library                          : x264 core 159 r2991 1771b55
Encoding settings                        : cabac=1 / ref=5 / deblock=1:0:0 / analyse=0x3:0x113 / me=umh / subme=8 / psy=1 / psy_rd=1.00:0.00 / mixed_ref=1 / me_range=16 / chroma_me=1 / trellis=1 / 8x8dct=1 / cqm=0 / deadzone=21,11 / fast_pskip=1 / chroma_qp_offset=-2 / threads=22 / lookahead_threads=3 / sliced_threads=0 / nr=0 / decimate=1 / interlaced=0 / bluray_compat=0 / constrained_intra=0 / bframes=3 / b_pyramid=2 / b_adapt=2 / b_bias=0 / direct=3 / weightb=1 / open_gop=0 / weightp=2 / keyint=240 / keyint_min=23 / scenecut=40 / intra_refresh=0 / rc_lookahead=50 / rc=2pass / mbtree=1 / bitrate=4244 / ratetol=1.0 / qcomp=0.60 / qpmin=0 / qpmax=69 / qpstep=4 / cplxblur=20.0 / qblur=0.5 / ip_ratio=1.40 / aq=1:1.00
Default                                  : Yes
Forced                                   : No

Audio
ID                                       : 2
Format                                   : DTS
Format/Info                              : Digital Theater Systems
Codec ID                                 : A_DTS
Duration                                 : 2 h 15 min
Bit rate mode                            : Constant
Bit rate                                 : 1 509 kb/s
Channel(s)                               : 6 channels
Channel layout                           : C L R Ls Rs LFE
Sampling rate                            : 48.0 kHz
Frame rate                               : 93.750 FPS (512 SPF)
Bit depth                                : 24 bits
Compression mode                         : Lossy
Stream size                              : 1.43 GiB (26%)
Title                                    : English Digital Theater Systems (DTS)
Language                                 : English
Default                                  : Yes
Forced                                   : No

Menu
00:00:00.000                             : :Chapter 01
00:07:21.816                             : :Chapter 02
00:16:07.049                             : :Chapter 03
00:26:52.694                             : :Chapter 04
00:34:39.369                             : :Chapter 05
00:40:58.206                             : :Chapter 06
00:50:10.007                             : :Chapter 07
00:55:36.291                             : :Chapter 08
01:04:22.609                             : :Chapter 09
01:12:01.317                             : :Chapter 10
01:18:40.883                             : :Chapter 11
01:26:01.865                             : :Chapter 12
01:37:00.398                             : :Chapter 13
01:43:37.044                             : :Chapter 14
01:57:05.435                             : :Chapter 15
02:07:17.380                             : :Chapter 16



                                                                                                                                                                                                        
                                                                                                                                                                                                                                                                                                                                                                                                                                                                                                                                                                                                                                                                                                                                                                                                                                                      
c70e737732a251db4e68abdbb40a0a69.torrent (27.96 KB, 下载次数: 16)

回复

使用道具 举报

小黑屋|磁力链接吧 |网站地图

本网站所有资源来自网络,如无意中侵犯了您的权益,请发邮件至 [email protected],立即清除相关链接

GMT+8, 2020-2-21 20:24 , Processed in 0.088881 second(s), 23 queries .

Powered by Discuz! X3.2

© 2001-2013 Comsenz Inc.

快速回复 返回顶部 返回列表