磁力链接吧

 找回密码
 立即注册
搜索

如果星期二一定是在比利时 If.Its.Tuesday.This.Must.Be.Belgium.1969...

[复制链接]
百度云资源 发表于 2020-2-1 01:09:24 | 显示全部楼层 |阅读模式
帖子完整标题:如果星期二一定是在比利时 If.Its.Tuesday.This.Must.Be.Belgium.1969.720p.BluRay.x264-LATENCY 4.38GB




◎译  名 如果星期二,一定是在比利时
◎片  名 If It's Tuesday, This Must Be Belgium
◎年  代 1969
◎产  地 美国
◎类  别 喜剧 / 爱情 / 冒险
◎语  言 英语
◎上映日期 1969-04-24
◎IMDb评分  6.4/10 from 1665 users
◎片  长 Argentina: 105 分钟
◎导  演 梅尔·斯图亚特 Mel Stuart
◎编  剧 David Shaw
◎主  演 苏珊娜·普莱薛特 Suzanne Pleshette
       伊恩·麦柯肖恩 Ian McShane
       维托里奥·德·西卡 Vittorio De Sica


◎标  签 喜剧 | 美国 | 电影 | 美国电影 | 约翰·卡索维茨 | 爱情 | 维托里奥·德·西卡 | 冒险

◎简  介  

  一群笨拙的美国游客到访欧洲,笑话幽默事接连发生……
Video
ID                                       : 1
Format                                   : AVC
Format/Info                              : Advanced Video Codec
Format settings                          : CABAC / 5 Ref Frames
Format settings, CABAC                   : Yes
Format settings, Reference frames        : 5 frames
Codec ID                                 : V_MPEG4/ISO/AVC
Duration                                 : 1 h 38 min
Bit rate                                 : 4 843 kb/s
Width                                    : 1 280 pixels
Height                                   : 696 pixels
Display aspect ratio                     : 1.85:1
Frame rate mode                          : Constant
Frame rate                               : 23.976 (24000/1001) FPS
Color space                              : YUV
Chroma subsampling                       : 4:2:0
Bit depth                                : 8 bits
Scan type                                : Progressive
Bits/(Pixel*Frame)                       : 0.227
Stream size                              : 3.33 GiB (76%)
Writing library                          : x264 core 158 r2988 7817004
Encoding settings                        : cabac=1 / ref=5 / deblock=1:0:0 / analyse=0x3:0x113 / me=umh / subme=8 / psy=1 / psy_rd=1.00:0.00 / mixed_ref=1 / me_range=16 / chroma_me=1 / trellis=2 / 8x8dct=1 / cqm=0 / deadzone=21,11 / fast_pskip=0 / chroma_qp_offset=-2 / threads=22 / lookahead_threads=3 / sliced_threads=0 / nr=0 / decimate=1 / interlaced=0 / bluray_compat=0 / constrained_intra=0 / bframes=3 / b_pyramid=2 / b_adapt=1 / b_bias=0 / direct=3 / weightb=1 / open_gop=0 / weightp=2 / keyint=250 / keyint_min=23 / scenecut=40 / intra_refresh=0 / rc_lookahead=50 / rc=2pass / mbtree=1 / bitrate=4843 / ratetol=1.0 / qcomp=0.60 / qpmin=0 / qpmax=69 / qpstep=4 / cplxblur=20.0 / qblur=0.5 / ip_ratio=1.40 / aq=1:1.00
Default                                  : Yes
Forced                                   : No

Audio
ID                                       : 2
Format                                   : DTS
Format/Info                              : Digital Theater Systems
Codec ID                                 : A_DTS
Duration                                 : 1 h 38 min
Bit rate mode                            : Constant
Bit rate                                 : 1 509 kb/s
Channel(s)                               : 2 channels
Channel layout                           : L R
Sampling rate                            : 48.0 kHz
Frame rate                               : 93.750 FPS (512 SPF)
Bit depth                                : 24 bits
Compression mode                         : Lossy
Stream size                              : 1.04 GiB (24%)
Title                                    : English
Language                                 : English
Default                                  : No
Forced                                   : No

Text
ID                                       : 3
Format                                   : UTF-8
Codec ID                                 : S_TEXT/UTF8
Codec ID/Info                            : UTF-8 Plain Text
Duration                                 : 1 h 37 min
Bit rate                                 : 66 b/s
Count of elements                        : 1257
Stream size                              : 47.3 KiB (0%)
Title                                    : English-HI
Language                                 : English
Default                                  : No
Forced                                   : No



                                                                                                                                                                                                        
                                                                                                                                                                                                                                                                                                                                                                                                                                                                                                                                                                                                                                                                                                                                                                                                                                                      
be100648f233eb1d7b98b38628787a37.torrent (44.68 KB, 下载次数: 3)

回复

使用道具 举报

小黑屋|磁力链接吧 |网站地图

本网站所有资源来自网络,如无意中侵犯了您的权益,请发邮件至 [email protected],立即清除相关链接

GMT+8, 2020-2-21 21:45 , Processed in 0.093258 second(s), 23 queries .

Powered by Discuz! X3.2

© 2001-2013 Comsenz Inc.

快速回复 返回顶部 返回列表