磁力链接吧

 找回密码
 立即注册
搜索

迈阿密故事 The.Miami.Story.1954.720p.BluRay.x264-BiPOLAR 3.28GB

[复制链接]
百度云资源 发表于 2020-2-1 01:09:24 | 显示全部楼层 |阅读模式
帖子完整标题:迈阿密故事 The.Miami.Story.1954.720p.BluRay.x264-BiPOLAR 3.28GB




◎译  名 迈阿密故事
◎片  名 The Miami Story
◎年  代 1954
◎产  地 美国
◎类  别 剧情 / 犯罪
◎语  言 英语
◎上映日期 1954
◎IMDb评分  6.3/10 from 172 users
◎片  长 75 分钟
◎导  演 Fred F. Sears
◎编  剧 Robert E. Kent
◎主  演 巴瑞·萨里万 Barry Sullivan
       卢瑟·艾德勒 Luther Adler
       阿黛尔·杰金斯 Adele Jergens


◎标  签 黑色电影 | 1954 | 美国电影 | 美国 | 弗雷德.西尔斯 | tik | Fred_F.Sears | Film_Noir

◎简  介  

  暂无相关剧情介绍
Video
ID                                       : 1
Format                                   : AVC
Format/Info                              : Advanced Video Codec
Format settings                          : CABAC / 5 Ref Frames
Format settings, CABAC                   : Yes
Format settings, Reference frames        : 5 frames
Codec ID                                 : V_MPEG4/ISO/AVC
Duration                                 : 1 h 15 min
Bit rate                                 : 5 456 kb/s
Width                                    : 1 280 pixels
Height                                   : 688 pixels
Display aspect ratio                     : 1.85:1
Frame rate mode                          : Constant
Frame rate                               : 23.976 (24000/1001) FPS
Color space                              : YUV
Chroma subsampling                       : 4:2:0
Bit depth                                : 8 bits
Scan type                                : Progressive
Bits/(Pixel*Frame)                       : 0.258
Stream size                              : 2.87 GiB (88%)
Writing library                          : x264 core 159 r2991 1771b55
Encoding settings                        : cabac=1 / ref=5 / deblock=1:-3:-3 / analyse=0x3:0x133 / me=umh / subme=9 / psy=1 / psy_rd=1.00:0.00 / mixed_ref=1 / me_range=16 / chroma_me=1 / trellis=2 / 8x8dct=1 / cqm=0 / deadzone=21,11 / fast_pskip=0 / chroma_qp_offset=-2 / threads=48 / lookahead_threads=4 / sliced_threads=0 / nr=0 / decimate=1 / interlaced=0 / bluray_compat=0 / constrained_intra=0 / bframes=3 / b_pyramid=2 / b_adapt=1 / b_bias=0 / direct=3 / weightb=1 / open_gop=0 / weightp=2 / keyint=240 / keyint_min=24 / scenecut=40 / intra_refresh=0 / rc_lookahead=50 / rc=2pass / mbtree=1 / bitrate=5456 / ratetol=1.0 / qcomp=0.60 / qpmin=0 / qpmax=69 / qpstep=4 / cplxblur=20.0 / qblur=0.5 / ip_ratio=1.40 / aq=1:1.00
Language                                 : English
Default                                  : Yes
Forced                                   : No

Audio
ID                                       : 2
Format                                   : DTS
Format/Info                              : Digital Theater Systems
Codec ID                                 : A_DTS
Duration                                 : 1 h 15 min
Bit rate mode                            : Constant
Bit rate                                 : 768 kb/s
Channel(s)                               : 1 channel
Channel layout                           : C
Sampling rate                            : 48.0 kHz
Frame rate                               : 93.750 FPS (512 SPF)
Bit depth                                : 24 bits
Compression mode                         : Lossy
Stream size                              : 414 MiB (12%)
Language                                 : English
Default                                  : Yes
Forced                                   : No

Text #1
ID                                       : 3
Format                                   : UTF-8
Codec ID                                 : S_TEXT/UTF8
Codec ID/Info                            : UTF-8 Plain Text
Duration                                 : 1 h 14 min
Bit rate                                 : 83 b/s
Count of elements                        : 1486
Stream size                              : 45.3 KiB (0%)
Title                                    : English
Language                                 : English
Default                                  : No
Forced                                   : No

Text #2
ID                                       : 4
Format                                   : UTF-8
Codec ID                                 : S_TEXT/UTF8
Codec ID/Info                            : UTF-8 Plain Text
Duration                                 : 1 h 15 min
Bit rate                                 : 85 b/s
Count of elements                        : 1553
Stream size                              : 46.8 KiB (0%)
Title                                    : English SDH
Language                                 : English
Default                                  : No
Forced                                   : No

Menu
00:00:00.000                             : en:00:00:00.000
00:00:55.222                             : en:00:00:55.222
00:08:43.106                             : en:00:08:43.106
00:16:32.241                             : en:00:16:32.241
00:27:03.664                             : en:00:27:03.664
00:29:23.804                             : en:00:29:23.804
00:36:52.544                             : en:00:36:52.544
00:43:40.159                             : en:00:43:40.159
00:51:48.188                             : en:00:51:48.188
00:59:50.504                             : en:00:59:50.504
01:05:25.422                             : en:01:05:25.422
01:10:58.004                             : en:01:10:58.004



                                                                                                                                                                                                        
                                                                                                                                                                                                                                                                                                                                                                                                                                                                                                                                                                                                                                                                                                                                                                                                                                                      
8d226da1d3bcb6894a15dd9e4ffe9f8f.torrent (33.42 KB, 下载次数: 5)

回复

使用道具 举报

小黑屋|磁力链接吧 |网站地图

本网站所有资源来自网络,如无意中侵犯了您的权益,请发邮件至 [email protected],立即清除相关链接

GMT+8, 2020-2-21 20:47 , Processed in 0.072543 second(s), 23 queries .

Powered by Discuz! X3.2

© 2001-2013 Comsenz Inc.

快速回复 返回顶部 返回列表