磁力链接吧

 找回密码
 立即注册
搜索

格兰德岛 Grand.Isle.2019.1080p.BluRay.x264-ROVERS 7.65GB

[复制链接]
百度云资源 发表于 2020-1-29 18:53:47 | 显示全部楼层 |阅读模式
帖子完整标题:格兰德岛 Grand.Isle.2019.1080p.BluRay.x264-ROVERS 7.65GB




◎译  名 格兰德岛
◎片  名 Grand Isle
◎年  代 2019
◎产  地 美国
◎类  别 动作 / 惊悚
◎语  言 英语
◎上映日期 2019-12-06(美国)
◎IMDb评分  4.6/10 from 790 users
◎片  长 97分钟
◎导  演 斯蒂芬·S·坎帕内利 Stephen S. Campanelli
◎编  剧 里奇·罗纳特 Rich Ronat / Iver William Jallah
◎主  演 尼古拉斯·凯奇 Nicolas Cage
       凯尔希·格兰莫 Kelsey Grammer
       祖蕾·亨奥 Zulay Henao
       卢克·本沃德 Luke Benward
       卡迪·斯特瑞兰德 KaDee Strickland
       艾米丽·玛丽·帕尔默 Emily Marie Palmer
       奥利弗·特雷韦纳 Oliver Trevena
       比阿特丽丝·埃尔南德斯 Beatrice Hernandez
       Isabella Grace Roark
       Haley Milsap


◎标  签 尼古拉斯·凯奇 | 美国 | 犯罪 | 2019 | 惊悚 | 美国电影 | 电影 | 性奴,反转

◎简  介  

  一位年轻父亲遭人诬陷为谋杀案罪犯,为了证明自己的清白,他必须要在自己经历过的一系列恐怖而离奇的事件中寻找线索和答案。
  本片由曾经执导过《绝命盗窃》并多次与克林特·伊斯特伍德合作的导演Stephen S. Campanelli和新晋导演Iver William Jallah联合执导,尼古拉斯·凯奇宣布加盟该片。
Video
ID                                       : 1
Format                                   : AVC
Format/Info                              : Advanced Video Codec
Format settings                          : CABAC / 4 Ref Frames
Format settings, CABAC                   : Yes
Format settings, Reference frames        : 4 frames
Codec ID                                 : V_MPEG4/ISO/AVC
Duration                                 : 1 h 37 min
Bit rate                                 : 9 750 kb/s
Width                                    : 1 920 pixels
Height                                   : 872 pixels
Display aspect ratio                     : 2.2:1
Frame rate mode                          : Constant
Frame rate                               : 23.976 (24000/1001) FPS
Color space                              : YUV
Chroma subsampling                       : 4:2:0
Bit depth                                : 8 bits
Scan type                                : Progressive
Bits/(Pixel*Frame)                       : 0.243
Stream size                              : 6.62 GiB (87%)
Writing library                          : x264 core 159 r2991 1771b55
Encoding settings                        : cabac=1 / ref=4 / deblock=1:-3:-3 / analyse=0x3:0x113 / me=umh / subme=8 / psy=1 / psy_rd=1.00:0.00 / mixed_ref=1 / me_range=16 / chroma_me=1 / trellis=1 / 8x8dct=1 / cqm=0 / deadzone=21,11 / fast_pskip=1 / chroma_qp_offset=-2 / threads=27 / lookahead_threads=4 / sliced_threads=0 / nr=0 / decimate=1 / interlaced=0 / bluray_compat=0 / constrained_intra=0 / bframes=3 / b_pyramid=2 / b_adapt=1 / b_bias=0 / direct=3 / weightb=1 / open_gop=0 / weightp=2 / keyint=250 / keyint_min=23 / scenecut=40 / intra_refresh=0 / rc_lookahead=50 / rc=2pass / mbtree=1 / bitrate=9750 / ratetol=1.0 / qcomp=0.60 / qpmin=0 / qpmax=69 / qpstep=4 / cplxblur=20.0 / qblur=0.5 / ip_ratio=1.40 / aq=1:1.00
Language                                 : English
Default                                  : Yes
Forced                                   : No

Audio
ID                                       : 2
Format                                   : DTS
Format/Info                              : Digital Theater Systems
Codec ID                                 : A_DTS
Duration                                 : 1 h 37 min
Bit rate mode                            : Constant
Bit rate                                 : 1 509 kb/s
Channel(s)                               : 6 channels
Channel layout                           : C L R Ls Rs LFE
Sampling rate                            : 48.0 kHz
Frame rate                               : 93.750 FPS (512 SPF)
Bit depth                                : 24 bits
Compression mode                         : Lossy
Stream size                              : 1.03 GiB (13%)
Language                                 : English
Default                                  : Yes
Forced                                   : No

Menu
00:00:00.000                             : en:00:00:00.000
00:06:06.241                             : en:00:06:06.241
00:15:55.163                             : en:00:15:55.163
00:23:30.284                             : en:00:23:30.284
00:32:34.077                             : en:00:32:34.077
00:40:36.726                             : en:00:40:36.726
00:51:06.063                             : en:00:51:06.063
00:56:13.203                             : en:00:56:13.203
01:03:28.430                             : en:01:03:28.430
01:13:52.595                             : en:01:13:52.595
01:23:06.398                             : en:01:23:06.398
01:34:26.953                             : en:01:34:26.953



                                                                                                                                                                                                        
                                                                                                                                                                                                                                                                                                                                                                                                                                                                                                                                                                                                                                                                                                                                                                                                                                                      
e82fd31779f30dcdc50e2c1e9899b4c8.torrent (39.05 KB, 下载次数: 7)

回复

使用道具 举报

小黑屋|磁力链接吧 |网站地图

本网站所有资源来自网络,如无意中侵犯了您的权益,请发邮件至 [email protected],立即清除相关链接

GMT+8, 2020-4-9 09:39 , Processed in 0.066751 second(s), 23 queries .

Powered by Discuz! X3.2

© 2001-2013 Comsenz Inc.

快速回复 返回顶部 返回列表