磁力链接吧

 找回密码
 立即注册
搜索

战争未了 While.At.War.2019.SPANISH.1080p.BluRay.x264.DTS-FGT 9.74GB

[复制链接]
百度云资源 发表于 2020-1-29 18:53:47 | 显示全部楼层 |阅读模式
帖子完整标题:战争未了 While.At.War.2019.SPANISH.1080p.BluRay.x264.DTS-FGT 9.74GB




◎译  名 战争未了 / While at War
◎片  名 Mientras dure la guerra
◎年  代 2019
◎产  地 西班牙
◎类  别 剧情 / 历史 / 战争
◎语  言 西班牙语
◎上映日期 2019-09-06(多伦多电影节) / 2019-09-27(西班牙)
◎IMDb评分  7.4/10 from 2181 users
◎导  演 亚历杭德罗·阿梅纳瓦尔 Alejandro Amenábar
◎编  剧 亚历杭德罗·阿梅纳瓦尔 Alejandro Amenábar / 亚历杭德罗·埃尔南德斯 Alejandro Hernández
◎主  演 卡拉·埃莱哈尔德 Karra Elejalde
       爱德华·费尔南德斯 Eduard Fernández
       娜塔莉·波萨 Nathalie Poza
       费尔南多·巴尔维德 Fernando Valverde
       路易斯·贝尔梅霍 Luis Bermejo
       帕特里夏·洛佩斯·阿奈斯 Patricia López Arnaiz
       路易斯·扎赫拉 Luis Zahera
       路易斯·卡叶赫 Luis Callejo
       佩普·托萨 Pep Tosar
       米克尔·伊格莱西亚斯 Mikel Iglesias
       马尔滕·丹嫩贝格 Maarten Dannenberg
       卢卡·佩洛斯 Luka Peros
       Santi Prego
       Inma Cuevas
       Carlos Serrano-Clark
       Ainhoa Santamaría
       Mireia Rey
       Dafnis Balduz
       Jorge Andreu
       Alfredo Villa


◎标  签 西班牙 | 历史 | 战争 | 西班牙电影 | 剧情 | 西班牙语 | 电影 | 欧洲电影

◎简  介  

  西班牙1936年夏。著名作家米盖尔·德·乌纳穆诺决定公开支持有望肃清国家混乱局势的军事起义。 他即刻被共和党政府解雇,不再任萨拉曼卡大学校长。与此同时,弗朗哥将军设法将他的部队加入反叛阵线,并私下着手准备成为战争的总指挥。面对冲突带来的血腥,同事遭受的监禁,乌纳穆诺开始质疑起自己最初的立场与原则。弗朗哥将总部搬到萨拉曼卡并被任命为国家元首后,乌纳穆诺前往他的住处,提出了请求.....
  上映日期(西班牙):2019年9月
  2019年圣塞巴斯蒂安电影节:官方选择(主竞赛单元)
  (by 深影字幕组)

◎获奖情况  

  第34届西班牙戈雅奖(2020)
  最佳影片(提名)
  最佳导演(提名) 亚历杭德罗·阿梅纳瓦尔
  最佳男主角(提名) 卡拉·埃莱哈尔德
  最佳男配角 爱德华·费尔南德斯
  最佳女配角(提名) 娜塔莉·波萨
  最佳新人男演员(提名) Santi Prego
  最佳新人女演员(提名) 爱诺亚萨娜塔玛蕊
  最佳原创剧本(提名) 亚历杭德罗·阿梅纳瓦尔 / 亚历杭德罗·埃尔南德斯
  最佳摄影(提名)
  最佳剪辑(提名)
  最佳艺术指导
  最佳制作人
  最佳音效(提名)
  最佳特效(提名)
  最佳服装设计
  最佳化妆与发型
  最佳原创音乐(提名)

  第67届圣塞巴斯蒂安国际电影节(2019)
  金贝壳奖(提名) 亚历杭德罗·阿梅纳瓦尔
Video
ID                                       : 1
Format                                   : AVC
Format/Info                              : Advanced Video Codec
Format settings                          : CABAC / 4 Ref Frames
Format settings, CABAC                   : Yes
Format settings, Reference frames        : 4 frames
Codec ID                                 : V_MPEG4/ISO/AVC
Duration                                 : 1 h 47 min
Bit rate                                 : 11.5 Mb/s
Width                                    : 1 920 pixels
Height                                   : 804 pixels
Display aspect ratio                     : 2.40:1
Frame rate mode                          : Constant
Frame rate                               : 24.000 FPS
Color space                              : YUV
Chroma subsampling                       : 4:2:0
Bit depth                                : 8 bits
Scan type                                : Progressive
Bits/(Pixel*Frame)                       : 0.310
Stream size                              : 8.61 GiB (88%)
Title                                    : While.At.War.2019.SPANISH.1080p.BluRay.x264.DTS-FGT
Writing library                          : x264 core 148 r2748 97eaef2
Encoding settings                        : cabac=1 / ref=4 / deblock=1:-2:-2 / analyse=0x3:0x113 / me=umh / subme=9 / psy=1 / psy_rd=1.00:0.15 / mixed_ref=1 / me_range=16 / chroma_me=1 / trellis=2 / 8x8dct=1 / cqm=0 / deadzone=21,11 / fast_pskip=1 / chroma_qp_offset=-3 / threads=72 / lookahead_threads=3 / sliced_threads=0 / nr=0 / decimate=1 / interlaced=0 / bluray_compat=0 / constrained_intra=0 / bframes=3 / b_pyramid=2 / b_adapt=1 / b_bias=0 / direct=3 / weightb=1 / open_gop=0 / weightp=2 / keyint=250 / keyint_min=25 / scenecut=40 / intra_refresh=0 / rc_lookahead=50 / rc=2pass / mbtree=1 / bitrate=11500 / ratetol=1.0 / qcomp=0.60 / qpmin=0 / qpmax=69 / qpstep=4 / cplxblur=20.0 / qblur=0.5 / vbv_maxrate=31250 / vbv_bufsize=31250 / nal_hrd=none / filler=0 / ip_ratio=1.40 / aq=1:1.00
Language                                 : Spanish
Default                                  : Yes
Forced                                   : No

Audio
ID                                       : 2
Format                                   : DTS
Format/Info                              : Digital Theater Systems
Codec ID                                 : A_DTS
Duration                                 : 1 h 47 min
Bit rate mode                            : Constant
Bit rate                                 : 1 509 kb/s
Channel(s)                               : 6 channels
Channel layout                           : C L R Ls Rs LFE
Sampling rate                            : 48.0 kHz
Frame rate                               : 93.750 FPS (512 SPF)
Bit depth                                : 16 bits
Compression mode                         : Lossy
Stream size                              : 1.13 GiB (12%)
Title                                    : While.At.War.2019.SPANISH.1080p.BluRay.x264.DTS-FGT
Language                                 : Spanish
Default                                  : Yes
Forced                                   : No

Text
ID                                       : 3
Format                                   : UTF-8
Codec ID                                 : S_TEXT/UTF8
Codec ID/Info                            : UTF-8 Plain Text
Duration                                 : 1 h 40 min
Bit rate                                 : 55 b/s
Count of elements                        : 1264
Stream size                              : 40.3 KiB (0%)
Language                                 : English
Default                                  : Yes
Forced                                   : No

Menu
00:00:00.000                             : en:Chapter 01
00:08:40.125                             : en:Chapter 02
00:17:00.500                             : en:Chapter 03
00:27:32.125                             : en:Chapter 04
00:36:36.750                             : en:Chapter 05
00:44:14.625                             : en:Chapter 06
00:54:46.375                             : en:Chapter 07
01:03:12.000                             : en:Chapter 08
01:12:23.250                             : en:Chapter 09
01:20:54.750                             : en:Chapter 10
01:30:34.000                             : en:Chapter 11
01:39:10.125                             : en:Chapter 12
01:41:11.000                             : en:Chapter 13



                                                                                                                                                                                                        
                                                                                                                                                                                                                                                                                                                                                                                                                                                                                                                                                                                                                                                                                                                                                                                                                                                      

bd853a798d469007de118bd146627e33.torrent (49.25 KB, 下载次数: 28)

回复

使用道具 举报

小黑屋|磁力链接吧 |网站地图

本网站所有资源来自网络,如无意中侵犯了您的权益,请发邮件至 [email protected],立即清除相关链接

GMT+8, 2020-2-20 07:21 , Processed in 0.075246 second(s), 23 queries .

Powered by Discuz! X3.2

© 2001-2013 Comsenz Inc.

快速回复 返回顶部 返回列表