磁力链接吧

 找回密码
 立即注册
搜索

最后一搏/终极衡量 The.Last.Full.Measure.2019.720p.BluRay.x264-GETiT 5...

[复制链接]
百度云资源 发表于 2020-1-29 18:27:25 | 显示全部楼层 |阅读模式
帖子完整标题:最后一搏/终极衡量 The.Last.Full.Measure.2019.720p.BluRay.x264-GETiT 5.47GB




◎译  名 最后一搏 / 终极衡量
◎片  名 The Last Full Measure
◎年  代 2020
◎产  地 美国
◎类  别 剧情 / 战争
◎语  言 英语
◎上映日期 2020-01-24(美国)
◎IMDb评分  6.4/10 from 830 users
◎片  长 110分钟
◎导  演 托德·罗宾森 Todd Robinson
◎编  剧 托德·罗宾森 Todd Robinson
◎主  演 塞缪尔·杰克逊 Samuel L. Jackson
       塞巴斯蒂安·斯坦 Sebastian Stan
       克里斯托弗·普卢默 Christopher Plummer
       布莱德利·惠特福德 Bradley Whitford
       彼得·方达 Peter Fonda
       艾德·哈里斯 Ed Harris
       艾莉森·萨多尔 Alison Sudol
       杰瑞米·艾文 Jeremy Irvine
       威廉·赫特 William Hurt
       戴安·拉德 Diane Ladd
       迈克尔·因佩里奥利 Michael Imperioli
       莱纳斯·罗彻 Linus Roache
       埃米·马迪根 Amy Madigan
       约翰·萨维奇 John Savage
       罗伯特·派恩 Robert Pine
       扎齐·罗伊瑞格 Zach Roerig
       麦克斯·盖尔 Max Gail
       丽莎·盖伊·汉密尔顿 Lisa Gay Hamilton
       代尔·戴 Dale Dye
       瑟达吕斯·布兰 Ser'Darius Blain
       柯迪·沃克 Cody Walker
       特拉维斯·阿隆·韦德 Travis Aaron Wade
       詹姆斯·贾格尔 James Jagger
       维布尔·弗利茨杰拉德 Wilbur Fitzgerald
       理查德·考索恩 Richard Cawthorne
       里克·赖茨 Ric Reitz
       阿瑟·迈尔斯·法里卡 Asher Miles Fallica
       朱利安·亚当斯 Julian Adams
       丹·雷诺兹 Dan Renalds
       贾迈尔·钱伯斯 Jamel Chambers
       罗宾·戴克 Robin Dyke
       胡安·贾斯帕 Juan Gaspard
       佩里·约翰逊 Perry Johnson
       奥罗拉·卡琳 Aurora Karine
       瑞恩·牛顿 Ryan Newton
       帕蒂·舍尔哈斯 Patti Schellhaas
       特拉维斯·汤普森 Travis Thompson
       罗伯特·廷斯利 Robert Tinsley
       Martin Copping
       Tyler Robinson


◎标  签 战争 | SebastianStan | 美国 | 美国电影 | 历史 | 南北战争 | 剧情 | 史诗

◎简  介  

  故事的主人公是一个很有野心的政府官僚。某天他接受了一件棘手的任务:完成一份关于授予一个英雄以国家最高荣誉的报告。问题是,这个英雄的事迹是发生在四十年前,而且并不像通常的那样毫无瑕疵。在调查这起事件中,主人公的生活发生了难以预料的改变,同时也殃及了周围的人们
Video
ID                                       : 1
Format                                   : AVC
Format/Info                              : Advanced Video Codec
Format settings                          : CABAC / 5 Ref Frames
Format settings, CABAC                   : Yes
Format settings, Reference frames        : 5 frames
Codec ID                                 : V_MPEG4/ISO/AVC
Duration                                 : 1 h 55 min
Bit rate                                 : 5 284 kb/s
Width                                    : 1 280 pixels
Height                                   : 536 pixels
Display aspect ratio                     : 2.40:1
Frame rate mode                          : Constant
Frame rate                               : 24.000 FPS
Color space                              : YUV
Chroma subsampling                       : 4:2:0
Bit depth                                : 8 bits
Scan type                                : Progressive
Bits/(Pixel*Frame)                       : 0.321
Stream size                              : 4.25 GiB (78%)
Writing library                          : x264 core 158 r2988 7817004
Encoding settings                        : cabac=1 / ref=5 / deblock=1:0:0 / analyse=0x3:0x133 / me=umh / subme=7 / psy=1 / psy_rd=1.00:0.00 / mixed_ref=1 / me_range=16 / chroma_me=1 / trellis=2 / 8x8dct=1 / cqm=0 / deadzone=21,11 / fast_pskip=0 / chroma_qp_offset=-2 / threads=16 / lookahead_threads=2 / sliced_threads=0 / nr=0 / decimate=1 / interlaced=0 / bluray_compat=0 / constrained_intra=0 / bframes=3 / b_pyramid=2 / b_adapt=1 / b_bias=0 / direct=3 / weightb=1 / open_gop=0 / weightp=2 / keyint=250 / keyint_min=24 / scenecut=40 / intra_refresh=0 / rc_lookahead=50 / rc=2pass / mbtree=1 / bitrate=5284 / ratetol=1.0 / qcomp=0.60 / qpmin=0 / qpmax=69 / qpstep=4 / cplxblur=20.0 / qblur=0.5 / ip_ratio=1.40 / aq=1:1.00
Language                                 : English
Default                                  : Yes
Forced                                   : No

Audio
ID                                       : 2
Format                                   : DTS
Format/Info                              : Digital Theater Systems
Codec ID                                 : A_DTS
Duration                                 : 1 h 55 min
Bit rate mode                            : Constant
Bit rate                                 : 1 509 kb/s
Channel(s)                               : 6 channels
Channel layout                           : C L R Ls Rs LFE
Sampling rate                            : 48.0 kHz
Frame rate                               : 93.750 FPS (512 SPF)
Bit depth                                : 24 bits
Compression mode                         : Lossy
Stream size                              : 1.21 GiB (22%)
Title                                    : DTS
Language                                 : English
Default                                  : Yes
Forced                                   : No

Menu
00:00:00.000                             : en:00:00:00.000
00:12:14.083                             : en:00:12:14.083
00:20:48.250                             : en:00:20:48.250
00:29:30.542                             : en:00:29:30.542
00:39:53.583                             : en:00:39:53.583
00:49:15.792                             : en:00:49:15.792
01:00:08.375                             : en:01:00:08.375
01:09:24.792                             : en:01:09:24.792
01:20:04.958                             : en:01:20:04.958
01:30:16.375                             : en:01:30:16.375
01:41:43.250                             : en:01:41:43.250
01:50:05.708                             : en:01:50:05.708



                                                                                                                                                                                                        
                                                                                                                                                                                                                                                                                                                                                                                                                                                                                                                                                                                                                                                                                                                                                                                                                                                      
b714ba10cd3caa8d18ba97264d8fc0b4.torrent (27.99 KB, 下载次数: 10)

回复

使用道具 举报

小黑屋|磁力链接吧 |网站地图

本网站所有资源来自网络,如无意中侵犯了您的权益,请发邮件至 [email protected],立即清除相关链接

GMT+8, 2020-2-21 20:18 , Processed in 0.078643 second(s), 23 queries .

Powered by Discuz! X3.2

© 2001-2013 Comsenz Inc.

快速回复 返回顶部 返回列表