磁力链接吧

 找回密码
 立即注册
搜索

最后一棵树 The.Last.Tree.2019.720p.BluRay.x264-PSYCHD 4.37GB

[复制链接]
百度云资源 发表于 2020-1-29 18:27:25 | 显示全部楼层 |阅读模式
帖子完整标题:最后一棵树 The.Last.Tree.2019.720p.BluRay.x264-PSYCHD 4.37GB




◎译  名 最后一棵树
◎片  名 The Last Tree
◎年  代 2019
◎产  地 英国
◎类  别 剧情
◎上映日期 2019-01-24(圣丹斯电影节)
◎片  长 100分钟(圣丹斯电影节)
◎导  演 Shola Amoo
◎编  剧 Shola Amoo
◎主  演 尼古拉斯·平诺克 Nicholas Pinnock
       Denise Black
       Sam Adewunmi
       Gbemisola Ikumelo
       Layo-Christina Akinlude
       Demmy Ladipo
       Rasaq Kukoyi
       Jayden Jean-Paul-Denis
       John Akanmu
       Tai Golding
       Yazzmin Newell
       Ruthxjiah Bellenea
       Shaqai White
       Ibrahim Jammal
       Sofia Chilvers


◎标  签 英国 | 剧情 | 青春 | 独立 | 成长 | 影 | 家庭 | 伦敦黑人

◎简  介  

  Femi is a British boy of Nigerian heritage who, after a happy childhood in rural Lincolnshire, moves to inner London to live with his mum. Struggling with the unfamiliar culture and values of his new environment, teenage Femi has to figure out which path to adulthood he wants to take.

◎获奖情况  

  第35届圣丹斯电影节(2019)
  评审团大奖 世界电影单元剧情片(提名) Shola Amoo

  第22届英国独立电影奖(2019)
  最佳男主角(提名) 山姆·阿德文米
  最佳女配角 露丝嘉·贝琳娜
  最佳新演员 山姆·阿德文米
  最佳选角(提名)
Video
ID                                       : 1
Format                                   : AVC
Format/Info                              : Advanced Video Codec
Format settings                          : CABAC / 5 Ref Frames
Format settings, CABAC                   : Yes
Format settings, Reference frames        : 5 frames
Codec ID                                 : V_MPEG4/ISO/AVC
Duration                                 : 1 h 38 min
Bit rate                                 : 5 578 kb/s
Width                                    : 1 280 pixels
Height                                   : 536 pixels
Display aspect ratio                     : 2.40:1
Frame rate mode                          : Constant
Frame rate                               : 24.000 FPS
Color space                              : YUV
Chroma subsampling                       : 4:2:0
Bit depth                                : 8 bits
Scan type                                : Progressive
Bits/(Pixel*Frame)                       : 0.339
Stream size                              : 3.75 GiB (86%)
Writing library                          : x264 core 159 r2991 1771b55
Encoding settings                        : cabac=1 / ref=5 / deblock=1:-3:-3 / analyse=0x3:0x113 / me=umh / subme=8 / psy=1 / psy_rd=1.00:0.00 / mixed_ref=1 / me_range=24 / chroma_me=1 / trellis=2 / 8x8dct=1 / cqm=0 / deadzone=21,11 / fast_pskip=1 / chroma_qp_offset=-2 / threads=6 / lookahead_threads=1 / sliced_threads=0 / nr=0 / decimate=1 / interlaced=0 / bluray_compat=0 / constrained_intra=0 / bframes=3 / b_pyramid=2 / b_adapt=2 / b_bias=0 / direct=3 / weightb=1 / open_gop=0 / weightp=2 / keyint=240 / keyint_min=24 / scenecut=40 / intra_refresh=0 / rc_lookahead=50 / rc=2pass / mbtree=1 / bitrate=5578 / ratetol=1.0 / qcomp=0.60 / qpmin=0 / qpmax=69 / qpstep=4 / cplxblur=20.0 / qblur=0.5 / ip_ratio=1.40 / aq=3:0.80
Default                                  : Yes
Forced                                   : No
Statistics Tags Issue                    : no_variable_data 1970-01-01 00:00:00 / no_variable_data 2010-02-22 21:41:29
FromStats_BitRate                        : 5570789
FromStats_Duration                       : 01:38:34.875000000
FromStats_FrameCount                     : 141957
FromStats_StreamSize                     : 4118815543

Audio
ID                                       : 2
Format                                   : DTS
Format/Info                              : Digital Theater Systems
Codec ID                                 : A_DTS
Duration                                 : 1 h 38 min
Bit rate mode                            : Constant
Bit rate                                 : 768 kb/s
Channel(s)                               : 6 channels
Channel layout                           : C L R Ls Rs LFE
Sampling rate                            : 48.0 kHz
Frame rate                               : 93.750 FPS (512 SPF)
Bit depth                                : 24 bits
Compression mode                         : Lossy
Stream size                              : 542 MiB (12%)
Language                                 : English
Default                                  : Yes
Forced                                   : No
Statistics Tags Issue                    : no_variable_data 1970-01-01 00:00:00 / no_variable_data 2010-02-22 21:41:29
FromStats_BitRate                        : 767999
FromStats_Duration                       : 01:38:34.966000000
FromStats_FrameCount                     : 554528
FromStats_StreamSize                     : 567836672

Text #1
ID                                       : 3
Format                                   : UTF-8
Codec ID                                 : S_TEXT/UTF8
Codec ID/Info                            : UTF-8 Plain Text
Language                                 : English
Default                                  : No
Forced                                   : No
Statistics Tags Issue                    : no_variable_data 1970-01-01 00:00:00 / no_variable_data 2010-02-22 21:41:29
FromStats_BitRate                        : 32
FromStats_Duration                       : 01:32:27.667000000
FromStats_FrameCount                     : 689
FromStats_StreamSize                     : 22485

Text #2
ID                                       : 4
Format                                   : UTF-8
Codec ID                                 : S_TEXT/UTF8
Codec ID/Info                            : UTF-8 Plain Text
Title                                    : SDH
Language                                 : English
Default                                  : No
Forced                                   : No
Statistics Tags Issue                    : no_variable_data 1970-01-01 00:00:00 / no_variable_data 2010-02-22 21:41:29
FromStats_BitRate                        : 40
FromStats_Duration                       : 01:33:15.000000000
FromStats_FrameCount                     : 842
FromStats_StreamSize                     : 28065

Menu
00:00:00.000                             : en:Chapter 01
00:15:04.917                             : en:Chapter 02
00:23:28.125                             : en:Chapter 03
00:36:28.542                             : en:Chapter 04
00:49:13.708                             : en:Chapter 05
01:05:01.167                             : en:Chapter 06
01:11:11.583                             : en:Chapter 07
01:21:35.875                             : en:Chapter 08



                                                                                                                                                                                                        
                                                                                                                                                                                                                                                                                                                                                                                                                                                                                                                                                                                                                                                                                                                                                                                                                                                      
c1071134f224106e4e66535f02ff6458.torrent (44.37 KB, 下载次数: 6)

回复

使用道具 举报

小黑屋|磁力链接吧 |网站地图

本网站所有资源来自网络,如无意中侵犯了您的权益,请发邮件至 [email protected],立即清除相关链接

GMT+8, 2020-9-27 08:07 , Processed in 0.106330 second(s), 23 queries .

Powered by Discuz! X3.2

© 2001-2013 Comsenz Inc.

快速回复 返回顶部 返回列表