磁力链接吧

 找回密码
 立即注册
搜索

恶霸警察 Jo.Pil-ho.The.Dawning.Rage.2019.KOREAN.1080p.BluRay.x264.DTS-HD....

[复制链接]
百度云资源 发表于 2020-1-28 18:36:23 | 显示全部楼层 |阅读模式
子完整标题:恶霸警察 Jo.Pil-ho.The.Dawning.Rage.2019.KOREAN.1080p.BluRay.x264.DTS-HD.MA.5.1-FGT 13.04GB




◎译  名 恶霸警察 / Bad Police / Jo Pil-ho: The Dawning Rage / 恶质警察
◎片  名 ????
◎年  代 2019
◎产  地 韩国
◎类  别 剧情 / 犯罪
◎语  言 韩语
◎上映日期 2019-03-20(韩国)
◎bt电影天堂 www.btddy.com
◎片  长 127分钟
◎导  演 李桢凡 Jeong-beom Lee
◎编  剧 李桢凡 Jeong-beom Lee
◎主  演 李善均 Seon-gyun Lee
       全素妮 Jeon So-nee
       朴海俊 Hea-jun Park
       宋永彰 Young-chang Song
       朴秉恩 Byung-eun Park
       金敏载 Kim Min-jae
       郑家蓝 Ga-ram  Jung
       尹亨国 Hyeong-gook Im


◎标  签 犯罪 | 韩国 | 动作 | 社会 | 2019 | 剧情 | 小人物 | 人性

◎简  介  

  为了躲避穷追不舍的内务探员,腐败的员警勉为其难地和叛逆青少女联手,企图在为时已晚前揭开阴谋。
Video
ID                                       : 1
Format                                   : AVC
Format/Info                              : Advanced Video Codec
Format settings                          : CABAC / 4 Ref Frames
Format settings, CABAC                   : Yes
Format settings, Reference frames        : 4 frames
Codec ID                                 : V_MPEG4/ISO/AVC
Duration                                 : 2 h 7 min
Bit rate                                 : 11.5 Mb/s
Width                                    : 1 920 pixels
Height                                   : 804 pixels
Display aspect ratio                     : 2.40:1
Frame rate mode                          : Constant
Frame rate                               : 23.976 (24000/1001) FPS
Color space                              : YUV
Chroma subsampling                       : 4:2:0
Bit depth                                : 8 bits
Scan type                                : Progressive
Bits/(Pixel*Frame)                       : 0.311
Stream size                              : 10.2 GiB (78%)
Title                                    : Jo.Pil-ho.The.Dawning.Rage.2019.KOREAN.1080p.BluRay.x264.DTS-HD.MA.5.1-FGT
Writing library                          : x264 core 148 r2748 97eaef2
Encoding settings                        : cabac=1 / ref=4 / deblock=1:-2:-2 / analyse=0x3:0x113 / me=umh / subme=9 / psy=1 / psy_rd=1.00:0.15 / mixed_ref=1 / me_range=16 / chroma_me=1 / trellis=2 / 8x8dct=1 / cqm=0 / deadzone=21,11 / fast_pskip=1 / chroma_qp_offset=-3 / threads=72 / lookahead_threads=3 / sliced_threads=0 / nr=0 / decimate=1 / interlaced=0 / bluray_compat=0 / constrained_intra=0 / bframes=3 / b_pyramid=2 / b_adapt=1 / b_bias=0 / direct=3 / weightb=1 / open_gop=0 / weightp=2 / keyint=250 / keyint_min=25 / scenecut=40 / intra_refresh=0 / rc_lookahead=50 / rc=2pass / mbtree=1 / bitrate=11500 / ratetol=1.0 / qcomp=0.60 / qpmin=0 / qpmax=69 / qpstep=4 / cplxblur=20.0 / qblur=0.5 / vbv_maxrate=31250 / vbv_bufsize=31250 / nal_hrd=none / filler=0 / ip_ratio=1.40 / aq=1:1.00
Language                                 : English
Default                                  : Yes
Forced                                   : No

Audio
ID                                       : 2
Format                                   : DTS XLL
Format/Info                              : Digital Theater Systems
Commercial name                          : DTS-HD Master Audio
Codec ID                                 : A_DTS
Duration                                 : 2 h 7 min
Bit rate mode                            : Variable
Bit rate                                 : 3 155 kb/s
Channel(s)                               : 6 channels
Channel layout                           : C L R Ls Rs LFE
Sampling rate                            : 48.0 kHz
Frame rate                               : 93.750 FPS (512 SPF)
Bit depth                                : 24 bits
Compression mode                         : Lossless
Stream size                              : 2.80 GiB (21%)
Title                                    : Jo.Pil-ho.The.Dawning.Rage.2019.KOREAN.1080p.BluRay.x264.DTS-HD.MA.5.1-FGT
Language                                 : Korean
Default                                  : Yes
Forced                                   : No

Text #1
ID                                       : 3
Format                                   : UTF-8
Codec ID                                 : S_TEXT/UTF8
Codec ID/Info                            : UTF-8 Plain Text
Duration                                 : 2 h 2 min
Bit rate                                 : 38 b/s
Count of elements                        : 1399
Stream size                              : 34.6 KiB (0%)
Title                                    : English-SRT
Language                                 : English
Default                                  : Yes
Forced                                   : No

Text #2
ID                                       : 4
Format                                   : PGS
Muxing mode                              : zlib
Codec ID                                 : S_HDMV/PGS
Codec ID/Info                            : Picture based subtitle format used on BDs/HD-DVDs
Duration                                 : 2 h 0 min
Bit rate                                 : 20.8 kb/s
Count of elements                        : 2975
Stream size                              : 17.9 MiB (0%)
Title                                    : Korean-PGS
Language                                 : Korean
Default                                  : No
Forced                                   : No

Text #3
ID                                       : 5
Format                                   : PGS
Muxing mode                              : zlib
Codec ID                                 : S_HDMV/PGS
Codec ID/Info                            : Picture based subtitle format used on BDs/HD-DVDs
Duration                                 : 2 h 2 min
Bit rate                                 : 21.8 kb/s
Count of elements                        : 2794
Stream size                              : 19.0 MiB (0%)
Title                                    : English-PGS
Language                                 : English
Default                                  : No
Forced                                   : No

Menu
00:00:00.000                             : ko:Chapter 01
00:07:01.379                             : ko:Chapter 02
00:20:06.705                             : ko:Chapter 03
00:29:28.391                             : ko:Chapter 04
00:39:08.804                             : ko:Chapter 05
00:51:37.010                             : ko:Chapter 06
01:05:09.739                             : ko:Chapter 07
01:18:09.351                             : ko:Chapter 08
01:32:48.604                             : ko:Chapter 09
01:42:07.871                             : ko:Chapter 10
01:55:39.807                             : ko:Chapter 11
02:02:53.991                             : ko:Chapter 12



                                                                                                                                                                                                        
                                                                                                                                                                                                                                                                                                                                                                                                                                                                                                                                                                                                                                                                                                                                                                                                                                                      
c338f92b0ca1ec01d404a27ad3c863a8.torrent (65.8 KB, 下载次数: 61)

回复

使用道具 举报

小黑屋|磁力链接吧 |网站地图

本网站所有资源来自网络,如无意中侵犯了您的权益,请发邮件至 [email protected],立即清除相关链接

GMT+8, 2020-9-27 23:34 , Processed in 0.130916 second(s), 23 queries .

Powered by Discuz! X3.2

© 2001-2013 Comsenz Inc.

快速回复 返回顶部 返回列表