磁力链接吧

 找回密码
 立即注册
搜索

花椒之味 Fagara.2019.CHINESE.720p.BluRay.x264-iKiW 4.26GB

[复制链接]
百度云资源 发表于 2020-1-20 18:18:00 | 显示全部楼层 |阅读模式
子完整标题:花椒之味 Fagara.2019.CHINESE.720p.BluRay.x264-iKiW 4.26GB




◎译  名 Fagara / 心灵火锅 / 我的爱如此麻辣
◎片  名 花椒之味
◎年  代 2019
◎产  地 中国香港 / 中国大陆
◎类  别 剧情 / 家庭
◎语  言 汉语普通话 / 粤语
◎上映日期 2019-09-06(中国大陆) / 2019-09-12(香港)
◎bt电影天堂 www.btddy.com
◎片  长 118分钟
◎导  演 麦曦茵 Heiward Mak
◎编  剧 麦曦茵 Heiward Mak
◎主  演 郑秀文 Sammi Cheng
       赖雅妍 Megan Lai
       李晓峰 Xiaofeng Li
       钟镇涛 Kenny Bee
       任贤齐 Richie Jen
       刘瑞琪 Linda Jui-Chi Liu
       吴彦姝 Yanshu Wu
       刘德华 Andy Lau


◎标  签 温情 | 家庭 | 香港 | 亲情 | 2019 | 剧情 | 感人 | 中国大陆

◎简  介  

  夏如树(郑秀文饰)有一天突然得知父亲(钟镇涛饰)死讯,并由此发现原来自己在台北、重庆两地各有一个同父异母的妹妹如枝(赖雅妍饰)及如果(李晓峰饰)。来自三个不同地域、性格迥异的三姐妹,在父亲的葬礼上首次碰面,明明陌生却有着血缘的牵绊,同样面对着父母离异的创口与生活的惶惑;如树毅然决定继续经营父亲留下的火锅店,获得重新认识父亲的契机。三姐妹因上一代人的爱恨纠缠,在破碎家庭关系中成长,也因此相遇相知,互相依存,重拾修复关系的勇气,成长创口得以疗愈。
Video
ID                                       : 1
Format                                   : AVC
Format/Info                              : Advanced Video Codec
Format settings                          : CABAC / 12 Ref Frames
Format settings, CABAC                   : Yes
Format settings, Reference frames        : 12 frames
Codec ID                                 : V_MPEG4/ISO/AVC
Duration                                 : 1 h 57 min
Bit rate                                 : 4 544 kb/s
Width                                    : 1 280 pixels
Height                                   : 544 pixels
Display aspect ratio                     : 2.35:1
Frame rate mode                          : Constant
Frame rate                               : 24.000 FPS
Color space                              : YUV
Chroma subsampling                       : 4:2:0
Bit depth                                : 8 bits
Scan type                                : Progressive
Bits/(Pixel*Frame)                       : 0.272
Stream size                              : 3.73 GiB (88%)
Writing library                          : x264 core 129 r2245+704+36 8e61944 tMod+MixAQ [1:2:0 X86_64]
Encoding settings                        : cabac=1 / ref=12 / deblock=1:-3:-3 / analyse=0x3:0x133 / me=umh / subme=11 / psy=1 / fade_compensate=0.00 / psy_rd=1.00:0.10 / mixed_ref=1 / me_range=32 / chroma_me=1 / trellis=2 / 8x8dct=1 / cqm=0 / deadzone=21,11 / fast_pskip=0 / chroma_qp_offset=-3 / threads=18 / lookahead_threads=3 / sliced_threads=0 / nr=0 / decimate=0 / interlaced=0 / bluray_compat=0 / constrained_intra=0 / fgo=0 / bframes=10 / b_pyramid=2 / b_adapt=2 / b_bias=0 / direct=3 / weightb=1 / open_gop=0 / weightp=2 / keyint=250 / keyint_min=24 / scenecut=40 / intra_refresh=0 / rc=2pass / mbtree=0 / bitrate=4544 / ratetol=1.0 / qcomp=0.70 / qpmin=0 / qpmax=69 / qpstep=4 / cplxblur=20.0 / qblur=0.5 / ip_ratio=1.40 / pb_ratio=1.30 / aq=1 / aq-strength=0.90 / aq-sensitivity=10.00 / aq-ifactor=1.00 / aq-pfactor=1.00 / aq-bfactor=1.00 / aq2=0
Language                                 : Chinese
Default                                  : Yes
Forced                                   : No

Audio
ID                                       : 2
Format                                   : AC-3
Format/Info                              : Audio Coding 3
Commercial name                          : Dolby Digital
Codec ID                                 : A_AC3
Duration                                 : 1 h 57 min
Bit rate mode                            : Constant
Bit rate                                 : 640 kb/s
Channel(s)                               : 6 channels
Channel layout                           : L R C LFE Ls Rs
Sampling rate                            : 48.0 kHz
Frame rate                               : 31.250 FPS (1536 SPF)
Bit depth                                : 16 bits
Compression mode                         : Lossy
Stream size                              : 540 MiB (12%)
Title                                    : Cantonese
Language                                 : Chinese
Service kind                             : Complete Main
Default                                  : Yes
Forced                                   : No

Text #1
ID                                       : 3
Format                                   : UTF-8
Codec ID                                 : S_TEXT/UTF8
Codec ID/Info                            : UTF-8 Plain Text
Duration                                 : 1 h 50 min
Bit rate                                 : 45 b/s
Count of elements                        : 1522
Stream size                              : 36.9 KiB (0%)
Language                                 : English
Default                                  : Yes
Forced                                   : No

Text #2
ID                                       : 4
Format                                   : UTF-8
Codec ID                                 : S_TEXT/UTF8
Codec ID/Info                            : UTF-8 Plain Text
Duration                                 : 1 h 47 min
Bit rate                                 : 45 b/s
Count of elements                        : 1518
Stream size                              : 35.9 KiB (0%)
Title                                    : Simplified
Language                                 : Chinese
Default                                  : No
Forced                                   : No

Text #3
ID                                       : 5
Format                                   : UTF-8
Codec ID                                 : S_TEXT/UTF8
Codec ID/Info                            : UTF-8 Plain Text
Duration                                 : 1 h 47 min
Bit rate                                 : 45 b/s
Count of elements                        : 1518
Stream size                              : 35.9 KiB (0%)
Title                                    : Traditional
Language                                 : Chinese
Default                                  : No
Forced                                   : No

Menu
00:00:00.000                             : en:第 01 章
00:05:16.250                             : en:第 02 章
00:13:36.833                             : en:第 03 章
00:21:18.750                             : en:第 04 章
00:25:58.708                             : en:第 05 章
00:30:54.500                             : en:第 06 章
00:36:07.416                             : en:第 07 章
00:41:51.375                             : en:第 08 章
00:46:57.166                             : en:第 09 章
00:51:39.083                             : en:第 10 章
00:55:11.375                             : en:第 11 章
01:00:29.916                             : en:第 12 章
01:04:51.000                             : en:第 13 章
01:10:35.583                             : en:第 14 章
01:18:14.541                             : en:第 15 章
01:23:21.166                             : en:第 16 章
01:30:52.625                             : en:第 17 章
01:35:44.250                             : en:第 18 章
01:45:08.750                             : en:第 19 章
01:54:39.208                             : en:第 20 章



                                                                                                                                                                                                        
                                                                                                                                                                                                                                                                                                                                                                                                                                                                                                                                                                                                                                                                                                                                                                                                                                                      
a56f101e2e4930ebeb0d35758fac348c.torrent (43.14 KB, 下载次数: 13)

回复

使用道具 举报

小黑屋|磁力链接吧 |网站地图

本网站所有资源来自网络,如无意中侵犯了您的权益,请发邮件至 [email protected],立即清除相关链接

GMT+8, 2020-9-27 09:20 , Processed in 0.124729 second(s), 23 queries .

Powered by Discuz! X3.2

© 2001-2013 Comsenz Inc.

快速回复 返回顶部 返回列表