磁力链接吧

 找回密码
 立即注册
搜索

三个强盗 The.Three.Exclamation.Marks.2019.720p.BluRay.x264-UNVEiL 4.37GB

[复制链接]
百度云资源 发表于 2020-1-20 18:18:00 | 显示全部楼层 |阅读模式
帖子完整标题:三个强盗 The.Three.Exclamation.Marks.2019.720p.BluRay.x264-UNVEiL 4.37GB




◎译  名 三个强盗
◎片  名 Die Drei !!!
◎年  代 2019
◎产  地 德国
◎类  别 家庭 / 儿童 / 冒险
◎语  言 德语
◎上映日期 2019-07-25(德国)
◎IMDb评分  5.4/10 from 55 users
◎bt电影天堂 www.btddy.com
◎片  长 90分钟(德国)
◎导  演 Viviane Andereggen
◎编  剧 Sina Flammang
◎主  演 Sylvester Groth


◎简  介  

  暂无相关剧情介绍
Video
ID                                       : 1
Format                                   : AVC
Format/Info                              : Advanced Video Codec
Format settings                          : CABAC / 5 Ref Frames
Format settings, CABAC                   : Yes
Format settings, Reference frames        : 5 frames
Codec ID                                 : V_MPEG4/ISO/AVC
Duration                                 : 1 h 41 min
Bit rate                                 : 4 635 kb/s
Width                                    : 1 280 pixels
Height                                   : 536 pixels
Display aspect ratio                     : 2.40:1
Frame rate mode                          : Constant
Frame rate                               : 24.000 FPS
Color space                              : YUV
Chroma subsampling                       : 4:2:0
Bit depth                                : 8 bits
Scan type                                : Progressive
Bits/(Pixel*Frame)                       : 0.281
Stream size                              : 3.29 GiB (75%)
Writing library                          : x264 core 158 r2988 7817004
Encoding settings                        : cabac=1 / ref=5 / deblock=1:-2:-2 / analyse=0x3:0x113 / me=umh / subme=8 / psy=1 / psy_rd=1.00:0.00 / mixed_ref=1 / me_range=16 / chroma_me=1 / trellis=2 / 8x8dct=1 / cqm=0 / deadzone=21,11 / fast_pskip=0 / chroma_qp_offset=-2 / threads=17 / lookahead_threads=2 / sliced_threads=0 / nr=0 / decimate=1 / interlaced=0 / bluray_compat=0 / constrained_intra=0 / bframes=3 / b_pyramid=2 / b_adapt=2 / b_bias=0 / direct=3 / weightb=1 / open_gop=0 / weightp=2 / keyint=240 / keyint_min=24 / scenecut=40 / intra_refresh=0 / rc_lookahead=50 / rc=2pass / mbtree=1 / bitrate=4635 / ratetol=1.0 / qcomp=0.60 / qpmin=0 / qpmax=69 / qpstep=4 / cplxblur=20.0 / qblur=0.5 / ip_ratio=1.40 / aq=1:1.00
Language                                 : English
Default                                  : Yes
Forced                                   : No

Audio
ID                                       : 2
Format                                   : DTS
Format/Info                              : Digital Theater Systems
Codec ID                                 : A_DTS
Duration                                 : 1 h 41 min
Bit rate mode                            : Constant
Bit rate                                 : 1 509 kb/s
Channel(s)                               : 6 channels
Channel layout                           : C L R Ls Rs LFE
Sampling rate                            : 48.0 kHz
Frame rate                               : 93.750 FPS (512 SPF)
Bit depth                                : 24 bits
Compression mode                         : Lossy
Stream size                              : 1.07 GiB (25%)
Language                                 : German
Default                                  : Yes
Forced                                   : No

Text
ID                                       : 3
Format                                   : UTF-8
Codec ID                                 : S_TEXT/UTF8
Codec ID/Info                            : UTF-8 Plain Text
Duration                                 : 1 h 41 min
Bit rate                                 : 49 b/s
Count of elements                        : 1218
Stream size                              : 36.9 KiB (0%)
Language                                 : English
Default                                  : Yes
Forced                                   : No

Menu
00:00:00.000                             : :Kapitel 01
00:07:07.208                             : :Kapitel 02
00:14:09.042                             : :Kapitel 03
00:20:21.250                             : :Kapitel 04
00:26:58.042                             : :Kapitel 05
00:32:38.250                             : :Kapitel 06
00:37:51.792                             : :Kapitel 07
00:43:23.250                             : :Kapitel 08
00:49:58.458                             : :Kapitel 09
00:54:25.500                             : :Kapitel 10
01:01:11.292                             : :Kapitel 11
01:06:51.625                             : :Kapitel 12
01:14:51.042                             : :Kapitel 13
01:20:49.333                             : :Kapitel 14
01:27:19.250                             : :Kapitel 15
01:35:38.500                             : :Kapitel 16



                                                                                                                                                                                                        
                                                                                                                                                                                                                                                                                                                                                                                                                                                                                                                                                                                                                                                                                                                                                                                                                                                      
182221e94481ba05a7095bdb27811944.torrent (44.6 KB, 下载次数: 10)

回复

使用道具 举报

小黑屋|磁力链接吧 |网站地图

本网站所有资源来自网络,如无意中侵犯了您的权益,请发邮件至 [email protected],立即清除相关链接

GMT+8, 2020-2-21 21:10 , Processed in 0.099731 second(s), 23 queries .

Powered by Discuz! X3.2

© 2001-2013 Comsenz Inc.

快速回复 返回顶部 返回列表