磁力链接吧

 找回密码
 立即注册
搜索

洛瑞太太和她的儿子 Mrs.Lowry.and.Son.2019.720p.BluRay.X264-AMIABLE 4...

[复制链接]
百度云资源 发表于 2020-1-20 18:18:00 | 显示全部楼层 |阅读模式
帖子完整标题:洛瑞太太和她的儿子 Mrs.Lowry.and.Son.2019.720p.BluRay.X264-AMIABLE 4.37GB




◎译  名 洛瑞太太和她的儿子 / Mrs Lowry and Son / Mrs. Lowry & Son / 洛瑞&火柴男人(台)
◎片  名 Mrs Lowry & Son
◎年  代 2019
◎产  地 英国
◎类  别 剧情 / 传记 / 历史
◎语  言 英语
◎上映日期 2019-06-30(爱丁堡国际电影节) / 2019-08-30(英国)
◎IMDb评分  6.7/10 from 529 users
◎bt电影天堂 www.btddy.com
◎片  长 91分钟
◎导  演 Adrian Noble
◎编  剧 Martyn Hesford
◎主  演 瓦妮莎·雷德格瑞夫 Vanessa Redgrave
       蒂莫西·斯波 Timothy Spall
       史蒂芬·洛德 Stephen Lord
       温迪·摩根 Wendy Morgan
       迈尔斯·基奥治 Michael Keogh
       Joanne Pearce
       David Schaal
       John Alan Roberts
       Jon Furlong
       Paul Bergquist
       Laurence Mills
       Kíla Lord Cassidy
       Rose Noble
       Jennifer Banks
       Giselle Cullinane


◎标  签 传记 | 英国 | 2019 | 藝術家 | 英國 | 2010s | 電影 | 蒂莫西·斯波

◎简  介  

  他那咄咄逼人的控制狂母亲
  成就了二十世纪英国最伟大的画家之一
  L.S. 洛瑞是二十世纪英国最伟大的国民画家之一,独特的画风深受英国民众喜爱。但是他的画作在早期却遭艺术评论家嘲笑为出自儿童之手,因为他笔下的人物,头大大,身体细细,就像一根根的火柴棒一样,被称为“火柴男人”。虽然说洛瑞的母亲伊莉莎白女士,一生都在阻扰他的艺术事业,但是洛瑞之所以能够成为优秀的画家,却不得不归功于他的母亲。在他父亲去世之后,洛瑞负责照顾卧病在床的母亲,每每等到她入睡了才在阁楼开始作画,全心全意,甘之如饴。抑鬱寡欢的伊莉莎白总是叨叨念著她对儿子的不满与失望,洛瑞却终其一生都在追寻著如何让母亲快乐,他的生活与他的画作都渴望著母亲的认同。本片由知名皇家莎士比亚剧场前任总监亚德里安.诺布尔担任导演,找来坎城影帝提摩西司伯饰演这位伟大的画家,以及坎城影后凡妮莎蕾格烈芙饰演控制狂的母亲。两人精湛的演技,演活了这对讽刺却又带幽默的母子。
  「烟囱林立以及冒著黑烟的天空,火柴男子出现在一成不变的工业景观裡踽踽独行。」洛瑞的作品纪录了后工业化的英国城市景观,以及人们的疏离,直到现在,仍能引起共鸣。他在晚年被皇家艺术学会及曼彻斯特学院延揽,作品曾以370万英镑高价售出。他多次拒绝了英国首相颁发的勳章,并拒绝了勳爵的封号。
Video
ID                                       : 1
Format                                   : AVC
Format/Info                              : Advanced Video Codec
Format settings                          : CABAC / 5 Ref Frames
Format settings, CABAC                   : Yes
Format settings, Reference frames        : 5 frames
Codec ID                                 : V_MPEG4/ISO/AVC
Duration                                 : 1 h 31 min
Bit rate                                 : 5 323 kb/s
Width                                    : 1 280 pixels
Height                                   : 536 pixels
Display aspect ratio                     : 2.40:1
Frame rate mode                          : Constant
Frame rate                               : 23.976 (24000/1001) FPS
Color space                              : YUV
Chroma subsampling                       : 4:2:0
Bit depth                                : 8 bits
Scan type                                : Progressive
Bits/(Pixel*Frame)                       : 0.324
Stream size                              : 3.32 GiB (76%)
Writing library                          : x264 core 159 r2991 1771b55
Encoding settings                        : cabac=1 / ref=5 / deblock=1:-3:-3 / analyse=0x3:0x113 / me=umh / subme=8 / psy=1 / psy_rd=1.00:0.00 / mixed_ref=1 / me_range=24 / chroma_me=1 / trellis=2 / 8x8dct=1 / cqm=0 / deadzone=21,11 / fast_pskip=1 / chroma_qp_offset=-2 / threads=6 / lookahead_threads=1 / sliced_threads=0 / nr=0 / decimate=1 / interlaced=0 / bluray_compat=0 / constrained_intra=0 / bframes=3 / b_pyramid=2 / b_adapt=2 / b_bias=0 / direct=3 / weightb=1 / open_gop=0 / weightp=2 / keyint=240 / keyint_min=24 / scenecut=40 / intra_refresh=0 / rc_lookahead=50 / rc=2pass / mbtree=1 / bitrate=5323 / ratetol=1.0 / qcomp=0.60 / qpmin=0 / qpmax=69 / qpstep=4 / cplxblur=20.0 / qblur=0.5 / ip_ratio=1.40 / aq=3:0.80
Default                                  : Yes
Forced                                   : No
Statistics Tags Issue                    : no_variable_data 1970-01-01 00:00:00 / no_variable_data 2010-02-22 21:41:29
FromStats_BitRate                        : 5321466
FromStats_Duration                       : 01:31:33.363000000
FromStats_FrameCount                     : 131709
FromStats_StreamSize                     : 3654093172

Audio
ID                                       : 2
Format                                   : DTS
Format/Info                              : Digital Theater Systems
Codec ID                                 : A_DTS
Duration                                 : 1 h 31 min
Bit rate mode                            : Constant
Bit rate                                 : 1 509 kb/s
Channel(s)                               : 6 channels
Channel layout                           : C L R Ls Rs LFE
Sampling rate                            : 48.0 kHz
Frame rate                               : 93.750 FPS (512 SPF)
Bit depth                                : 24 bits
Compression mode                         : Lossy
Stream size                              : 988 MiB (22%)
Language                                 : English
Default                                  : Yes
Forced                                   : No
Statistics Tags Issue                    : no_variable_data 1970-01-01 00:00:00 / no_variable_data 2010-02-22 21:41:29
FromStats_BitRate                        : 1508999
FromStats_Duration                       : 01:31:33.387000000
FromStats_FrameCount                     : 515005
FromStats_StreamSize                     : 1036190060

Text #1
ID                                       : 3
Format                                   : UTF-8
Codec ID                                 : S_TEXT/UTF8
Codec ID/Info                            : UTF-8 Plain Text
Language                                 : English
Default                                  : No
Forced                                   : No
Statistics Tags Issue                    : no_variable_data 1970-01-01 00:00:00 / no_variable_data 2010-02-22 21:41:29
FromStats_BitRate                        : 46
FromStats_Duration                       : 01:25:56.318000000
FromStats_FrameCount                     : 922
FromStats_StreamSize                     : 29921

Text #2
ID                                       : 4
Format                                   : UTF-8
Codec ID                                 : S_TEXT/UTF8
Codec ID/Info                            : UTF-8 Plain Text
Title                                    : SDH
Language                                 : English
Default                                  : No
Forced                                   : No
Statistics Tags Issue                    : no_variable_data 1970-01-01 00:00:00 / no_variable_data 2010-02-22 21:41:29
FromStats_BitRate                        : 46
FromStats_Duration                       : 01:25:56.318000000
FromStats_FrameCount                     : 931
FromStats_StreamSize                     : 30047

Menu
00:00:00.000                             : en:Chapter 01
00:07:25.487                             : en:Chapter 02
00:14:57.313                             : en:Chapter 03
00:24:39.395                             : en:Chapter 04
00:31:46.071                             : en:Chapter 05
00:39:57.228                             : en:Chapter 06
00:48:13.557                             : en:Chapter 07
00:53:31.291                             : en:Chapter 08
00:59:17.637                             : en:Chapter 09
01:06:42.624                             : en:Chapter 10
01:14:29.757                             : en:Chapter 11
01:19:30.140                             : en:Chapter 12
01:26:21.593                             : en:Chapter 13
01:28:33.892                             : en:Chapter 14



                                                                                                                                                                                                        
                                                                                                                                                                                                                                                                                                                                                                                                                                                                                                                                                                                                                                                                                                                                                                                                                                                      

05aa599b05ae571718c35dc7f2ebd090.torrent (44.53 KB, 下载次数: 9)

回复

使用道具 举报

小黑屋|磁力链接吧 |网站地图

本网站所有资源来自网络,如无意中侵犯了您的权益,请发邮件至 [email protected],立即清除相关链接

GMT+8, 2020-2-21 22:36 , Processed in 0.064979 second(s), 23 queries .

Powered by Discuz! X3.2

© 2001-2013 Comsenz Inc.

快速回复 返回顶部 返回列表