磁力链接吧

 找回密码
 立即注册
搜索

[BD-4K] 终结者:黑暗命运 Terminator.Dark.Fate.2019.2160p.BluRay.x265.10bit.SDR....

[复制链接]
百度云资源 发表于 2020-1-20 17:47:26 | 显示全部楼层 |阅读模式
帖子完整标题:终结者:黑暗命运 Terminator.Dark.Fate.2019.2160p.BluRay.x265.10bit.SDR.DTS-HD.MA.TrueHD.7.1.Atmos-SWTYBLZ 33.79GB




◎译  名 终结者:黑暗命运 / Terminator 6 / 未来战士:黑暗命运(港) / 终结者2019 / 终结者6 / 终结者6:黑暗命运 / 终结者6:黑暗宿命 / 魔鬼终结者:黑暗宿命(台)
◎片  名 Terminator: Dark Fate
◎年  代 2019
◎产  地 美国 / 中国大陆
◎类  别 动作 / 科幻 / 冒险
◎语  言 英语
◎上映日期 2019-10-23(法国) / 2019-11-01(美国/中国大陆)
◎IMDb评分  6.4/10 from 60728 users
◎bt电影天堂 www.btddy.com
◎片  长 128分钟
◎导  演 蒂姆·米勒 Tim Miller
◎编  剧 詹姆斯·卡梅隆 James Cameron / 查尔斯·H·伊格里 Charles H. Eglee / 乔什·弗莱德曼 Josh Friedman / 大卫·S·高耶 David S. Goyer / 贾斯汀·罗德斯 Justin Rhodes / 比利·雷 Billy Ray / 盖尔·安妮·赫德 Gale Anne Hurd
◎主  演 麦肯兹·戴维斯 Mackenzie Davis
       娜塔利娅·雷耶斯 Natalia Reyes
       琳达·汉密尔顿 Linda Hamilton
       阿诺·施瓦辛格 Arnold Schwarzenegger
       加布里埃尔·鲁纳 Gabriel Luna
       迪耶戈·博内塔 Diego Boneta
       恩里克·阿尔切 Enrique Arce
       特里斯坦·乌罗阿 Tristán Ulloa
       艾丽西娅·博拉切罗 Alicia Borrachero
       布雷特·阿扎尔 Brett Azar
       史蒂芬·克里 Steven Cree
       罗谢尔·尼尔 Rochelle Neil
       弗雷泽·杰姆斯 Fraser James
       克劳迪娅·特鲁希略 Claudia Trujillo
       比约恩·弗赖贝格 Bj?rn Freiberg
       约翰·盖蒂尔 John Gettier
       彼得·奥蒙德 Peter Ormond
       Lorna Brown
       Peter Schueller


◎标  签 科幻 | 动作 | 美国 | 机器人 | 2019 | 情怀 | 冒险 | 剧情

◎简  介  

  《终结者2:审判日》发生的27年后,由于未来天网派来T-800成功杀死年幼的约翰,以致令未来产生变化,一个全新进化的液态金属终结者从未来派出,目的是追杀持有关键讯息的丹妮·拉莫斯、半生化人葛蕾丝和她的朋友。这使莎拉·康纳以及成功杀死约翰的T800终结者前来帮助她们一行人,以共同为了人类的未来而战。

◎获奖情况  

  第6届豆瓣电影年度榜单(2019)
  评分最高的科幻/动作片(提名)
Video
ID                                       : 1
Format                                   : HEVC
Format/Info                              : High Efficiency Video Coding
Codec ID                                 : V_MPEGH/ISO/HEVC
Duration                                 : 2 h 8 min
Bit rate                                 : 28.1 Mb/s
Width                                    : 3 840 pixels
Height                                   : 1 606 pixels
Display aspect ratio                     : 2.40:1
Frame rate mode                          : Constant
Frame rate                               : 23.976 (24000/1001) FPS
Color space                              : YUV
Chroma subsampling                       : 4:2:0
Bit depth                                : 10 bits
Bits/(Pixel*Frame)                       : 0.190
Stream size                              : 25.2 GiB (75%)
Title                                    : Terminator.Dark.Fate.2019.2160p.BluRay.x265.10bit.SDR.DTS-HD.MA.TrueHD.7.1.Atmos-SWTYBLZ
Writing library                          : x265 3.0ed72af837053:[Windows][GCC 8.2.0][64 bit] 10bit
Encoding settings                        : cpuid=1111039 / frame-threads=16 / numa-pools=40 / wpp / no-pmode / no-pme / no-psnr / no-ssim / log-level=2 / input-csp=1 / input-res=3840x1606 / interlace=0 / total-frames=184264 / level-idc=51 / high-tier=1 / uhd-bd=0 / ref=3 / no-allow-non-conformance / repeat-headers / annexb / aud / hrd / info / hash=0 / no-temporal-layers / no-open-gop / min-keyint=1 / keyint=24 / gop-lookahead=0 / bframes=4 / b-adapt=2 / b-pyramid / bframe-bias=0 / rc-lookahead=25 / lookahead-slices=4 / scenecut=40 / radl=0 / no-splice / no-intra-refresh / ctu=64 / min-cu-size=8 / no-rect / no-amp / max-tu-size=32 / tu-inter-depth=1 / tu-intra-depth=1 / limit-tu=0 / rdoq-level=0 / dynamic-rd=0.00 / no-ssim-rd / signhide / no-tskip / nr-intra=0 / nr-inter=0 / no-constrained-intra / strong-intra-smoothing / max-merge=2 / limit-refs=3 / no-limit-modes / me=1 / subme=2 / merange=57 / temporal-mvp / weightp / no-weightb / no-analyze-src-pics / deblock=0:0 / no-sao / no-sao-non-deblock / rd=3 / no-early-skip / rskip / no-fast-intra / no-tskip-fast / no-cu-lossless / no-b-intra / no-splitrd-skip / rdpenalty=0 / psy-rd=2.00 / psy-rdoq=0.00 / no-rd-refine / no-lossless / cbqpoffs=0 / crqpoffs=0 / rc=crf / crf=16.0 / qcomp=0.60 / qpstep=4 / stats-write=0 / stats-read=0 / vbv-maxrate=160000 / vbv-bufsize=160000 / vbv-init=0.9 / crf-max=0.0 / crf-min=0.0 / ipratio=1.40 / pbratio=1.30 / aq-mode=1 / aq-strength=1.00 / cutree / zone-count=0 / no-strict-cbr / qg-size=32 / no-rc-grain / qpmax=69 / qpmin=0 / no-const-vbv / sar=1 / overscan=0 / videoformat=5 / range=0 / colorprim=2 / transfer=2 / colormatrix=2 / chromaloc=0 / display-window=0 / max-cll=0,0 / min-luma=0 / max-luma=1023 / log2-max-poc-lsb=8 / vui-timing-info / vui-hrd-info / slices=1 / opt-qp-pps / opt-ref-list-length-pps / no-multi-pass-opt-rps / scenecut-bias=0.05 / no-opt-cu-delta-qp / no-aq-motion / no-hdr / no-hdr-opt / no-dhdr10-opt / no-idr-recovery-sei / analysis-reuse-level=5 / scale-factor=0 / refine-intra=0 / refine-inter=0 / refine-mv=0 / refine-ctu-distortion=0 / no-limit-sao / ctu-info=0 / no-lowpass-dct / refine-analysis-type=0 / copy-pic=1 / max-ausize-factor=1.0 / no-dynamic-refine / no-single-sei / no-hevc-aq / qp-adaptation-range=1.00
Default                                  : Yes
Forced                                   : No

Audio #1
ID                                       : 2
Format                                   : MLP FBA 16-ch
Format/Info                              : Meridian Lossless Packing FBA with 16-channel presentation
Commercial name                          : Dolby TrueHD with Dolby Atmos
Codec ID                                 : A_TRUEHD
Duration                                 : 2 h 8 min
Bit rate mode                            : Variable
Bit rate                                 : 4 634 kb/s
Maximum bit rate                         : 8 247 kb/s
Channel(s)                               : 8 channels
Channel layout                           : L R C LFE Ls Rs Lb Rb
Sampling rate                            : 48.0 kHz
Frame rate                               : 1 200.000 FPS (40 SPF)
Compression mode                         : Lossless
Stream size                              : 4.15 GiB (12%)
Title                                    : Terminator.Dark.Fate.2019.2160p.BluRay.x265.10bit.SDR.DTS-HD.MA.TrueHD.7.1.Atmos-SWTYBLZ
Language                                 : English
Default                                  : Yes
Forced                                   : No
Number of dynamic objects                : 11
Bed channel count                        : 1 channel
Bed channel configuration                : LFE

Audio #2
ID                                       : 3
Format                                   : DTS XLL
Format/Info                              : Digital Theater Systems
Commercial name                          : DTS-HD Master Audio
Codec ID                                 : A_DTS
Duration                                 : 2 h 8 min
Bit rate mode                            : Variable
Bit rate                                 : 4 061 kb/s
Channel(s)                               : 8 channels
Channel layout                           : C L R LFE Lb Rb Lss Rss
Sampling rate                            : 48.0 kHz
Frame rate                               : 93.750 FPS (512 SPF)
Bit depth                                : 24 bits
Compression mode                         : Lossless
Stream size                              : 3.63 GiB (11%)
Title                                    : Terminator.Dark.Fate.2019.2160p.BluRay.x265.10bit.SDR.DTS-HD.MA.TrueHD.7.1.Atmos-SWTYBLZ
Language                                 : English
Default                                  : No
Forced                                   : No

Audio #3
ID                                       : 4
Format                                   : AC-3
Format/Info                              : Audio Coding 3
Commercial name                          : Dolby Digital
Codec ID                                 : A_AC3
Duration                                 : 2 h 8 min
Bit rate mode                            : Constant
Bit rate                                 : 640 kb/s
Channel(s)                               : 6 channels
Channel layout                           : L R C LFE Ls Rs
Sampling rate                            : 48.0 kHz
Frame rate                               : 31.250 FPS (1536 SPF)
Compression mode                         : Lossy
Stream size                              : 586 MiB (2%)
Title                                    : Terminator.Dark.Fate.2019.2160p.BluRay.x265.10bit.SDR.DTS-HD.MA.TrueHD.7.1.Atmos-SWTYBLZ
Language                                 : English
Service kind                             : Complete Main
Default                                  : No
Forced                                   : No

Text #1
ID                                       : 5
Format                                   : UTF-8
Codec ID                                 : S_TEXT/UTF8
Codec ID/Info                            : UTF-8 Plain Text
Duration                                 : 1 h 57 min
Bit rate                                 : 31 b/s
Count of elements                        : 1078
Stream size                              : 27.2 KiB (0%)
Title                                    : English-SRT
Language                                 : English
Default                                  : Yes
Forced                                   : No

Text #2
ID                                       : 6
Format                                   : UTF-8
Codec ID                                 : S_TEXT/UTF8
Codec ID/Info                            : UTF-8 Plain Text
Duration                                 : 1 h 57 min
Bit rate                                 : 39 b/s
Count of elements                        : 1387
Stream size                              : 34.3 KiB (0%)
Title                                    : English-SDH-SRT
Language                                 : English
Default                                  : No
Forced                                   : No

Text #3
ID                                       : 7
Format                                   : PGS
Muxing mode                              : zlib
Codec ID                                 : S_HDMV/PGS
Codec ID/Info                            : Picture based subtitle format used on BDs/HD-DVDs
Duration                                 : 1 h 57 min
Bit rate                                 : 20.1 kb/s
Count of elements                        : 2100
Stream size                              : 16.9 MiB (0%)
Title                                    : English-PGS
Language                                 : English
Default                                  : No
Forced                                   : No

Text #4
ID                                       : 8
Format                                   : PGS
Muxing mode                              : zlib
Codec ID                                 : S_HDMV/PGS
Codec ID/Info                            : Picture based subtitle format used on BDs/HD-DVDs
Duration                                 : 1 h 57 min
Bit rate                                 : 27.3 kb/s
Count of elements                        : 2778
Stream size                              : 22.9 MiB (0%)
Title                                    : English-SDH-PGS
Language                                 : English
Default                                  : No
Forced                                   : No

Text #5
ID                                       : 9
Format                                   : PGS
Muxing mode                              : zlib
Codec ID                                 : S_HDMV/PGS
Codec ID/Info                            : Picture based subtitle format used on BDs/HD-DVDs
Duration                                 : 2 h 7 min
Bit rate                                 : 20.9 kb/s
Count of elements                        : 2468
Stream size                              : 19.2 MiB (0%)
Title                                    : French-PGS
Language                                 : French
Default                                  : No
Forced                                   : No

Text #6
ID                                       : 10
Format                                   : PGS
Muxing mode                              : zlib
Codec ID                                 : S_HDMV/PGS
Codec ID/Info                            : Picture based subtitle format used on BDs/HD-DVDs
Duration                                 : 2 h 7 min
Bit rate                                 : 18.3 kb/s
Count of elements                        : 2150
Stream size                              : 16.7 MiB (0%)
Title                                    : Spanish-PGS
Language                                 : Spanish
Default                                  : No
Forced                                   : No

Menu
00:00:00.000                             : en:Chapter 01
00:04:19.843                             : en:Chapter 02
00:07:48.927                             : en:Chapter 03
00:11:47.916                             : en:Chapter 04
00:16:56.349                             : en:Chapter 05
00:22:10.663                             : en:Chapter 06
00:29:00.614                             : en:Chapter 07
00:33:25.754                             : en:Chapter 08
00:41:35.493                             : en:Chapter 09
00:47:02.695                             : en:Chapter 10
00:53:08.936                             : en:Chapter 11
00:57:56.807                             : en:Chapter 12
01:05:02.690                             : en:Chapter 13
01:13:07.967                             : en:Chapter 14
01:20:45.591                             : en:Chapter 15
01:27:29.744                             : en:Chapter 16
01:32:48.688                             : en:Chapter 17
01:41:45.850                             : en:Chapter 18
01:49:35.319                             : en:Chapter 19
01:57:58.613                             : en:Chapter 20



                                                                                                                                                                                                        
                                                                                                                                                                                                                                                                                                                                                                                                                                                                                                                                                                                                                                                                                                                                                                                                                                                      
b5d85638bfd7a53ac5011da8dbbb215b.torrent (85.15 KB, 下载次数: 30)

回复

使用道具 举报

小黑屋|磁力链接吧 |网站地图

本网站所有资源来自网络,如无意中侵犯了您的权益,请发邮件至 [email protected],立即清除相关链接

GMT+8, 2020-2-23 17:28 , Processed in 0.074281 second(s), 26 queries .

Powered by Discuz! X3.2

© 2001-2013 Comsenz Inc.

快速回复 返回顶部 返回列表